<?xml version="1.0" standalone="yes"?><svg version="1.1" xmlns = 'http://www.w3.org/2000/svg'><defs><font id='web' horiz-adv-x="1000">
<font-face font-family="web" descent="-410" cap-height="1516" units-per-em="2048" bbox="-147,-477,2302,1981" x-height="1081" ascent="1518" />
<missing-glyph horiz-adv-x="1024" d="" /><glyph horiz-adv-x="1024" d="" unicode=" " />
<glyph horiz-adv-x="2048" d="" unicode=" " />
<glyph horiz-adv-x="1155" d="" unicode=" " />
<glyph horiz-adv-x="2314" d="" unicode=" " />
<glyph horiz-adv-x="410" d="" unicode=" " />
<glyph horiz-adv-x="1155" d="" unicode="‒" />
<glyph horiz-adv-x="1141" d="M 106 715 L 1034 715 L 1034 567 L 106 567 L 106 715 Z" unicode="–" />
<glyph horiz-adv-x="1561" d="M 104 715 L 1454 715 L 1454 567 L 104 567 L 104 715 Z" unicode="—" />
<glyph horiz-adv-x="2048" d="" unicode="―" />
<glyph horiz-adv-x="487" d="M 150 1286 L 246 1516 L 324 1516 L 268 1300 L 336 1300 L 336 1090 L 150 1090 L 150 1286 Z" unicode="‘" />
<glyph horiz-adv-x="487" d="M 219 1303 L 147 1303 L 147 1516 L 336 1516 L 336 1319 L 242 1090 L 164 1090 L 219 1303 Z" unicode="’" />
<glyph horiz-adv-x="487" d="M 219 0 L 147 0 L 147 213 L 336 213 L 336 16 L 242 -215 L 164 -215 L 219 0 Z" unicode="‚" />
<glyph horiz-adv-x="842" d="M 506 1286 L 600 1516 L 676 1516 L 623 1300 L 692 1300 L 692 1090 L 506 1090 L 506 1286 Z M 150 1286 L 246 1516 L 324 1516 L 268 1300 L 336 1300 L 336 1090 L 150 1090 L 150 1286 Z" unicode="“" />
<glyph horiz-adv-x="842" d="M 575 1303 L 506 1303 L 506 1516 L 690 1516 L 690 1319 L 596 1090 L 520 1090 L 575 1303 Z M 219 1303 L 147 1303 L 147 1516 L 336 1516 L 336 1319 L 242 1090 L 164 1090 L 219 1303 Z" unicode="”" />
<glyph horiz-adv-x="842" d="M 575 0 L 506 0 L 506 213 L 690 213 L 690 16 L 596 -215 L 520 -215 L 575 0 Z M 219 0 L 147 0 L 147 213 L 336 213 L 336 16 L 242 -215 L 164 -215 L 219 0 Z" unicode="„" />
<glyph horiz-adv-x="408" d="" unicode=" " />
<glyph horiz-adv-x="575" d="M 188 1516 L 389 1516 L 348 416 L 229 416 L 188 1516 Z M 190 205 L 387 205 L 387 0 L 190 0 L 190 205 Z" unicode="!" />
<glyph horiz-adv-x="752" d="M 461 1403 L 461 1516 L 616 1516 L 616 1403 L 588 995 L 489 995 L 461 1403 Z M 133 1403 L 133 1516 L 293 1516 L 293 1403 L 264 995 L 164 995 L 133 1403 Z" unicode="&#x22;" />
<glyph horiz-adv-x="1253" d="M 268 438 L 68 438 L 68 573 L 293 573 L 358 942 L 143 942 L 143 1077 L 383 1077 L 461 1516 L 612 1516 L 535 1077 L 825 1077 L 903 1516 L 1055 1516 L 977 1077 L 1184 1077 L 1184 942 L 952 942 L 887 573 L 1108 573 L 1108 438 L 862 438 L 786 0 L 633 0 L 711 438 L 422 438 L 344 0 L 190 0 L 268 438 Z M 735 571 L 801 944 L 510 944 L 444 571 L 735 571 Z" unicode="#" />
<glyph horiz-adv-x="1145" d="M 502 0 C 446 6 396 19 353 39 C 310 59 272 84 240 114 C 207 144 179 178 155 217 C 131 255 110 297 94 342 L 240 395 C 272 324 309 267 351 223 C 393 179 445 152 508 141 L 508 721 C 462 741 417 763 373 787 C 329 810 289 838 255 871 C 220 904 192 943 171 989 C 149 1034 139 1089 139 1153 C 139 1203 147 1249 164 1291 C 180 1333 204 1371 236 1403 C 267 1435 305 1461 350 1481 C 394 1501 445 1514 502 1520 L 502 1677 L 633 1677 L 633 1518 C 681 1511 723 1499 761 1481 C 798 1463 831 1440 860 1414 C 888 1388 913 1357 934 1323 C 955 1289 973 1252 989 1214 L 848 1151 C 820 1213 789 1263 755 1299 C 721 1335 678 1358 627 1370 L 627 842 C 675 820 724 797 772 773 C 820 748 863 718 901 684 C 939 649 970 607 994 559 C 1018 510 1030 451 1030 383 C 1030 329 1021 279 1003 234 C 985 189 958 150 924 117 C 890 83 848 56 799 36 C 750 15 695 2 633 -2 L 633 -190 L 502 -190 L 502 0 Z M 508 1376 C 440 1368 388 1345 354 1306 C 320 1267 303 1219 303 1163 C 303 1129 308 1100 318 1074 C 328 1048 343 1024 361 1003 C 379 981 401 962 426 945 C 451 928 478 912 508 897 L 508 1376 Z M 627 137 C 661 141 692 148 721 159 C 749 170 774 185 796 204 C 817 223 834 246 846 274 C 858 301 864 333 864 371 C 864 409 857 442 845 472 C 833 502 816 528 794 552 C 772 575 747 596 719 614 C 690 632 659 650 627 666 L 627 137 Z" unicode="$" />
<glyph horiz-adv-x="1710" d="M 391 612 C 295 612 222 651 170 730 C 118 808 92 924 92 1077 C 92 1228 118 1343 170 1422 C 222 1500 295 1540 391 1540 C 487 1540 560 1500 610 1422 C 660 1343 686 1228 686 1077 C 686 924 660 808 610 730 C 560 651 487 612 391 612 Z M 1167 1516 L 1311 1516 L 541 0 L 397 0 L 1167 1516 Z M 1323 -20 C 1227 -20 1154 19 1102 97 C 1050 175 1024 291 1024 444 C 1024 595 1050 710 1102 789 C 1154 867 1227 907 1323 907 C 1417 907 1490 867 1540 789 C 1590 710 1616 595 1616 444 C 1616 291 1590 175 1540 97 C 1490 19 1417 -20 1323 -20 Z M 391 741 C 445 741 484 768 508 822 C 532 876 545 961 545 1077 C 545 1191 532 1276 506 1330 C 480 1384 441 1411 391 1411 C 337 1411 298 1384 273 1331 C 248 1277 236 1193 236 1077 C 236 960 249 875 275 821 C 301 767 339 741 391 741 Z M 1323 106 C 1377 106 1416 133 1440 188 C 1464 242 1477 328 1477 444 C 1477 558 1463 642 1437 696 C 1411 749 1373 776 1323 776 C 1268 776 1228 749 1203 696 C 1177 642 1165 558 1165 444 C 1165 327 1178 241 1205 187 C 1231 133 1271 106 1323 106 Z" unicode="%" />
<glyph horiz-adv-x="1276" d="M 508 -29 C 433 -29 368 -20 312 -2 C 256 15 209 40 171 73 C 133 106 105 146 87 194 C 68 242 59 296 59 356 C 59 411 67 461 84 507 C 100 553 123 595 151 633 C 179 671 211 705 248 737 C 285 769 324 799 365 827 C 335 887 311 946 295 1006 C 278 1066 270 1128 270 1192 C 270 1242 277 1288 291 1331 C 305 1374 325 1411 352 1443 C 379 1475 413 1499 453 1517 C 493 1535 540 1544 592 1544 C 642 1544 685 1536 721 1521 C 757 1505 787 1484 811 1458 C 834 1431 851 1400 862 1365 C 873 1330 879 1293 879 1255 C 879 1203 870 1155 853 1113 C 835 1070 812 1031 783 995 C 753 959 719 925 681 894 C 642 862 601 832 559 803 C 575 773 593 744 612 716 C 631 687 651 657 672 625 C 706 575 741 526 776 479 C 810 432 845 389 881 350 C 911 406 936 469 954 539 C 972 609 985 683 993 762 L 1147 762 C 1135 666 1117 574 1091 486 C 1065 398 1031 320 989 252 C 1033 212 1075 183 1117 163 C 1158 143 1199 132 1239 131 L 1239 -20 C 1174 -18 1114 -5 1058 18 C 1002 42 946 77 891 125 C 843 77 787 39 724 12 C 661 -15 589 -29 508 -29 Z M 502 918 C 533 940 562 962 590 986 C 617 1009 641 1034 661 1060 C 681 1086 697 1114 709 1144 C 721 1174 727 1207 727 1243 C 727 1265 724 1286 720 1306 C 715 1326 707 1343 697 1358 C 686 1372 672 1384 655 1392 C 637 1400 616 1405 592 1405 C 564 1405 540 1400 520 1390 C 500 1380 483 1367 470 1349 C 456 1331 446 1309 440 1284 C 433 1259 430 1232 430 1202 C 430 1154 436 1107 448 1061 C 460 1015 478 968 502 918 Z M 514 111 C 568 111 618 120 664 138 C 709 156 749 183 784 221 C 745 265 706 313 667 365 C 627 417 587 474 545 535 C 524 565 504 594 485 622 C 465 650 447 679 430 709 C 400 686 372 662 348 637 C 323 611 302 585 284 557 C 266 529 252 499 242 468 C 232 436 227 403 227 369 C 227 287 250 224 297 179 C 343 133 416 111 514 111 Z" unicode="&#x26;" />
<glyph horiz-adv-x="430" d="M 133 1403 L 133 1516 L 293 1516 L 293 1403 L 264 995 L 164 995 L 133 1403 Z" unicode="'" />
<glyph horiz-adv-x="715" d="M 537 -420 C 469 -353 407 -283 353 -209 C 299 -135 253 -58 216 23 C 178 105 150 190 130 280 C 110 369 100 463 100 561 C 100 658 110 751 130 840 C 150 929 178 1014 216 1095 C 253 1176 299 1253 353 1327 C 407 1401 469 1471 537 1538 L 633 1458 C 579 1398 531 1334 487 1266 C 443 1198 406 1126 375 1051 C 343 975 319 896 302 814 C 284 732 276 647 276 561 C 276 473 284 387 302 304 C 319 220 343 141 375 65 C 406 -11 444 -83 488 -151 C 532 -219 581 -282 635 -340 L 537 -420 L 537 -420 Z" unicode="(" />
<glyph horiz-adv-x="715" d="M 80 -340 C 134 -280 183 -216 227 -148 C 271 -80 308 -8 340 67 C 371 143 395 222 412 304 C 429 386 438 471 438 559 C 438 646 429 731 412 814 C 395 897 371 977 340 1053 C 308 1129 271 1201 227 1269 C 183 1337 134 1400 80 1458 L 176 1538 C 244 1471 305 1401 359 1327 C 413 1253 458 1176 496 1095 C 534 1013 562 928 582 839 C 602 750 612 657 612 559 C 612 461 602 368 582 279 C 562 190 534 105 496 24 C 458 -57 413 -135 359 -209 C 305 -283 244 -353 176 -420 L 80 -340 Z" unicode=")" />
<glyph horiz-adv-x="948" d="M 219 819 L 414 1102 L 76 1075 L 76 1198 L 416 1171 L 219 1456 L 330 1524 L 475 1208 L 618 1524 L 727 1456 L 532 1171 L 872 1198 L 872 1075 L 532 1102 L 727 819 L 618 754 L 475 1067 L 330 754 L 219 819 Z" unicode="*" />
<glyph horiz-adv-x="1096" d="M 475 604 L 100 604 L 100 745 L 475 745 L 475 1182 L 621 1182 L 621 745 L 995 745 L 995 604 L 621 604 L 621 170 L 475 170 L 475 604 Z" unicode="+" />
<glyph horiz-adv-x="485" d="M 221 0 L 145 0 L 145 213 L 336 213 L 336 20 L 244 -209 L 166 -209 L 221 0 Z" unicode="," />
<glyph horiz-adv-x="631" d="M 106 711 L 526 711 L 526 571 L 106 571 L 106 711 Z" unicode="-" />
<glyph horiz-adv-x="485" d="M 145 213 L 336 213 L 336 0 L 145 0 L 145 213 Z" unicode="." />
<glyph horiz-adv-x="989" d="M 784 1516 L 954 1516 L 205 0 L 35 0 L 784 1516 Z" unicode="/" />
<glyph horiz-adv-x="1153" d="M 578 -29 C 498 -29 428 -12 367 22 C 306 56 255 106 214 173 C 173 239 142 322 121 420 C 100 518 90 630 90 758 C 90 885 100 998 121 1096 C 142 1194 173 1276 214 1342 C 255 1408 306 1459 367 1493 C 428 1527 498 1544 578 1544 C 657 1544 727 1527 787 1493 C 847 1459 898 1408 939 1342 C 980 1276 1011 1194 1032 1096 C 1052 998 1063 885 1063 758 C 1063 630 1052 518 1032 420 C 1011 322 980 239 939 173 C 898 106 847 56 787 22 C 727 -12 657 -29 578 -29 Z M 578 121 C 628 121 673 133 712 158 C 751 182 784 220 811 272 C 837 324 858 390 872 470 C 886 550 893 646 893 758 C 893 868 885 964 871 1044 C 857 1124 836 1190 809 1242 C 781 1293 748 1331 709 1356 C 670 1380 626 1393 578 1393 C 526 1393 481 1380 442 1356 C 402 1331 369 1293 342 1242 C 315 1190 295 1124 281 1044 C 267 964 260 868 260 758 C 260 646 267 550 281 470 C 295 390 316 324 344 272 C 371 220 404 182 444 158 C 483 133 528 121 578 121 Z" unicode="0" />
<glyph horiz-adv-x="780" d="M 94 150 L 338 150 L 338 1337 C 322 1327 304 1317 284 1309 C 264 1301 243 1294 222 1288 C 201 1282 180 1277 158 1273 C 136 1269 116 1268 98 1268 L 98 1417 C 148 1419 195 1428 237 1444 C 279 1460 315 1484 344 1516 L 504 1516 L 504 150 L 721 150 L 721 0 L 94 0 L 94 150 Z" unicode="1" />
<glyph horiz-adv-x="1032" d="M 76 33 C 76 115 85 187 105 250 C 125 312 151 368 183 417 C 215 466 252 510 293 549 C 334 587 376 624 419 658 C 462 692 504 725 546 758 C 587 790 624 825 656 862 C 688 898 714 939 734 983 C 754 1027 764 1077 764 1135 C 764 1217 744 1280 704 1325 C 664 1370 606 1393 530 1393 C 496 1393 464 1387 436 1375 C 407 1363 381 1347 357 1325 C 333 1303 311 1276 291 1245 C 271 1214 254 1179 238 1141 L 96 1200 C 118 1253 143 1301 172 1343 C 201 1385 234 1421 271 1451 C 308 1481 349 1504 394 1520 C 438 1536 487 1544 541 1544 C 603 1544 659 1534 708 1515 C 756 1495 797 1468 830 1433 C 862 1397 887 1355 904 1306 C 921 1257 930 1203 930 1143 C 930 1081 920 1024 901 974 C 882 924 857 878 826 836 C 794 794 759 755 719 719 C 679 683 638 649 596 616 C 554 582 514 549 474 516 C 434 482 398 447 367 411 C 335 374 310 334 291 292 C 271 249 262 202 262 150 L 932 150 L 932 0 L 76 0 L 76 33 Z" unicode="2" />
<glyph horiz-adv-x="1047" d="M 502 -25 C 438 -25 382 -17 332 -1 C 282 14 238 36 200 65 C 162 93 129 128 101 169 C 73 210 50 256 31 307 L 174 367 C 192 321 212 282 234 250 C 256 218 280 193 307 174 C 333 155 362 141 394 133 C 425 125 459 121 496 121 C 541 121 582 128 618 142 C 654 156 684 176 709 202 C 734 227 753 257 766 293 C 779 329 786 368 786 412 C 786 464 778 511 764 551 C 749 591 726 624 695 651 C 663 678 623 698 574 712 C 524 726 465 733 395 733 L 342 733 L 342 872 L 430 872 C 488 872 537 878 578 891 C 618 903 652 922 678 946 C 704 970 722 1000 734 1036 C 746 1071 752 1111 752 1157 C 752 1190 747 1221 739 1250 C 730 1279 716 1304 697 1326 C 678 1347 653 1364 623 1376 C 593 1388 556 1395 512 1395 C 480 1395 450 1390 422 1382 C 394 1374 367 1362 343 1347 C 318 1332 295 1314 274 1293 C 253 1271 233 1248 215 1223 L 94 1305 C 119 1341 147 1373 178 1403 C 209 1432 243 1457 279 1478 C 315 1499 354 1515 396 1527 C 437 1538 481 1544 528 1544 C 596 1544 654 1534 703 1514 C 752 1494 792 1468 824 1434 C 856 1400 879 1360 895 1315 C 910 1269 918 1221 918 1171 C 918 1123 911 1079 899 1040 C 886 1000 868 965 846 935 C 824 904 797 878 767 857 C 737 836 704 820 670 809 C 711 795 749 778 784 756 C 818 734 848 707 873 675 C 898 643 917 605 931 561 C 945 517 952 468 952 412 C 952 348 941 289 919 235 C 897 181 867 135 828 97 C 788 59 741 29 686 7 C 630 -14 569 -25 502 -25 Z" unicode="3" />
<glyph horiz-adv-x="1083" d="M 664 354 L 51 354 L 51 485 L 637 1516 L 827 1516 L 827 506 L 1040 506 L 1040 354 L 827 354 L 827 0 L 664 0 L 664 354 Z M 666 506 L 666 1284 L 664 1284 L 227 506 L 666 506 Z" unicode="4" />
<glyph horiz-adv-x="1032" d="M 508 -29 C 452 -29 401 -21 357 -7 C 312 6 271 27 235 53 C 199 79 166 111 138 149 C 109 187 83 229 59 276 L 199 344 C 216 309 235 278 256 250 C 276 222 299 198 324 178 C 349 158 376 143 406 133 C 436 122 468 117 504 117 C 555 117 599 127 636 147 C 672 167 702 195 726 229 C 750 263 767 304 778 350 C 789 396 795 444 795 496 C 795 554 788 606 776 651 C 763 696 745 734 722 765 C 699 795 671 818 639 834 C 606 850 570 858 530 858 C 466 858 413 843 371 814 C 328 785 290 744 256 692 L 127 721 L 176 1516 L 885 1516 L 877 1362 L 315 1362 L 281 856 C 311 900 349 934 395 960 C 441 986 499 999 567 999 C 625 999 679 988 728 967 C 776 946 818 915 852 873 C 886 831 913 780 932 718 C 951 656 961 585 961 504 C 961 421 950 347 929 281 C 908 215 878 160 839 114 C 800 68 753 32 697 8 C 641 -16 578 -29 508 -29 Z" unicode="5" />
<glyph horiz-adv-x="1077" d="M 563 -29 C 493 -29 430 -13 372 17 C 314 47 264 94 222 157 C 180 219 148 298 125 394 C 101 489 90 601 90 731 C 90 850 100 959 122 1059 C 143 1159 175 1244 217 1316 C 259 1388 311 1444 375 1484 C 438 1524 512 1544 596 1544 C 642 1544 684 1538 721 1526 C 757 1514 790 1499 818 1481 C 846 1463 871 1442 892 1419 C 913 1395 932 1372 948 1350 L 819 1264 C 806 1282 792 1299 778 1315 C 763 1331 747 1345 729 1358 C 711 1370 690 1380 668 1388 C 645 1395 619 1399 590 1399 C 534 1399 485 1383 443 1353 C 401 1323 367 1280 339 1226 C 311 1172 290 1107 276 1032 C 262 956 254 874 254 784 C 275 808 298 831 324 852 C 350 873 377 891 407 906 C 436 921 467 933 500 941 C 533 949 568 954 604 954 C 674 954 734 942 785 918 C 836 894 878 861 911 819 C 944 777 968 726 984 668 C 1000 610 1008 546 1008 477 C 1008 405 998 338 978 276 C 958 214 930 160 892 115 C 854 70 807 35 752 9 C 696 -16 633 -29 563 -29 Z M 571 115 C 657 115 724 145 772 207 C 820 268 844 357 844 473 C 844 521 839 566 830 607 C 820 648 805 683 784 713 C 763 742 736 765 703 782 C 669 798 628 807 580 807 C 515 807 455 791 401 760 C 346 729 298 685 256 629 C 267 455 300 326 354 242 C 408 157 481 115 571 115 Z" unicode="6" />
<glyph horiz-adv-x="963" d="M 723 1362 L 76 1362 L 76 1516 L 899 1516 L 899 1374 L 362 0 L 190 0 L 723 1362 Z" unicode="7" />
<glyph horiz-adv-x="1075" d="M 539 -31 C 460 -31 391 -20 332 0 C 272 19 223 47 183 83 C 143 118 113 159 93 207 C 73 255 63 306 63 360 C 63 413 71 461 89 503 C 106 545 130 583 160 617 C 190 651 225 683 267 711 C 308 739 353 767 401 793 C 361 816 324 840 290 866 C 256 892 226 920 202 951 C 177 982 158 1016 144 1054 C 130 1092 123 1134 123 1182 C 123 1229 131 1275 149 1319 C 167 1363 193 1401 228 1435 C 262 1469 306 1496 358 1516 C 410 1536 470 1546 539 1546 C 608 1546 668 1536 720 1516 C 772 1496 815 1469 849 1435 C 883 1401 909 1363 926 1319 C 943 1275 952 1229 952 1182 C 952 1137 945 1097 932 1061 C 918 1025 900 993 876 964 C 852 934 823 907 789 882 C 755 857 717 833 676 811 C 724 784 769 756 810 728 C 851 700 887 668 917 633 C 947 598 970 559 987 515 C 1003 471 1012 421 1012 365 C 1012 309 1001 258 980 210 C 959 162 929 120 889 84 C 849 48 799 20 741 0 C 682 -20 615 -31 539 -31 Z M 549 877 C 587 897 622 918 652 939 C 682 960 707 982 727 1006 C 747 1029 762 1054 772 1082 C 782 1109 788 1140 788 1174 C 788 1202 783 1231 774 1259 C 765 1287 751 1311 731 1333 C 711 1354 686 1371 655 1385 C 623 1398 585 1405 541 1405 C 497 1405 460 1398 428 1386 C 396 1373 370 1356 350 1335 C 329 1313 314 1289 304 1262 C 294 1234 289 1206 289 1178 C 289 1142 294 1111 306 1083 C 318 1055 335 1030 357 1007 C 379 983 407 961 439 940 C 471 919 507 898 549 877 Z M 539 106 C 585 106 626 112 664 125 C 701 137 733 155 759 179 C 785 203 806 231 820 264 C 834 297 842 334 842 375 C 842 415 834 452 819 484 C 803 516 782 547 755 575 C 727 603 694 629 656 654 C 617 678 574 703 528 729 C 481 703 439 677 403 651 C 366 625 335 599 309 571 C 283 543 264 512 251 480 C 237 448 231 412 231 373 C 231 333 238 297 252 265 C 266 232 287 204 314 181 C 340 157 373 139 411 126 C 449 112 491 106 539 106 Z" unicode="8" />
<glyph horiz-adv-x="1077" d="M 485 -29 C 435 -29 391 -23 353 -11 C 315 1 281 16 251 36 C 221 56 196 78 174 102 C 152 126 133 151 117 176 L 244 262 C 258 242 272 224 288 206 C 304 188 321 173 341 160 C 360 146 382 135 406 127 C 430 119 457 115 489 115 C 545 115 593 130 635 160 C 677 190 711 233 739 287 C 766 341 786 406 800 482 C 814 557 821 640 821 731 C 799 706 776 683 751 663 C 726 642 699 624 670 609 C 640 594 609 582 576 574 C 543 565 509 561 473 561 C 403 561 343 572 293 596 C 242 620 200 653 167 696 C 134 738 110 789 94 847 C 78 905 70 968 70 1038 C 70 1110 80 1177 100 1239 C 120 1301 150 1354 188 1399 C 226 1444 272 1479 328 1505 C 383 1531 446 1544 516 1544 C 586 1544 650 1528 708 1498 C 766 1467 815 1420 857 1358 C 898 1296 930 1217 953 1122 C 975 1026 987 914 987 784 C 987 664 976 555 956 455 C 935 355 904 270 862 198 C 820 126 768 71 706 31 C 643 -9 569 -29 485 -29 Z M 502 709 C 564 709 622 724 676 755 C 730 786 777 830 819 887 C 809 1059 776 1188 722 1272 C 667 1356 596 1399 508 1399 C 419 1399 351 1368 304 1308 C 256 1247 233 1158 233 1042 C 233 993 237 948 247 908 C 256 867 271 832 293 802 C 314 772 342 749 376 733 C 410 717 452 709 502 709 Z" unicode="9" />
<glyph horiz-adv-x="492" d="M 150 1081 L 340 1081 L 340 868 L 150 868 L 150 1081 Z M 150 213 L 340 213 L 340 0 L 150 0 L 150 213 Z" unicode=":" />
<glyph horiz-adv-x="492" d="M 150 1081 L 340 1081 L 340 868 L 150 868 L 150 1081 Z M 223 0 L 150 0 L 150 213 L 340 213 L 340 23 L 246 -209 L 168 -209 L 223 0 Z" unicode=";" />
<glyph horiz-adv-x="1169" d="M 119 602 L 119 725 L 1040 1182 L 1040 1028 L 289 664 L 1040 299 L 1040 145 L 119 602 Z" unicode="&#x3C;" />
<glyph horiz-adv-x="1096" d="M 129 965 L 967 965 L 967 827 L 129 827 L 129 965 Z M 129 504 L 967 504 L 967 367 L 129 367 L 129 504 Z" unicode="=" />
<glyph horiz-adv-x="1169" d="M 131 299 L 881 664 L 131 1028 L 131 1182 L 1055 725 L 1055 602 L 131 145 L 131 299 Z" unicode="&#x3E;" />
<glyph horiz-adv-x="954" d="M 362 416 C 360 435 360 455 360 476 C 360 497 360 518 360 539 C 360 581 364 619 373 653 C 382 687 395 717 411 745 C 427 772 447 797 469 821 C 491 844 516 867 543 891 C 569 913 592 934 612 954 C 632 974 650 996 664 1018 C 678 1040 688 1065 696 1091 C 703 1117 707 1146 707 1180 C 707 1212 702 1242 692 1269 C 682 1295 667 1318 648 1337 C 629 1356 606 1371 578 1381 C 550 1391 519 1397 483 1397 C 451 1397 421 1391 394 1380 C 367 1369 342 1354 319 1335 C 296 1316 275 1294 256 1268 C 237 1242 220 1214 205 1184 L 68 1247 C 88 1290 112 1330 140 1366 C 168 1402 199 1434 234 1460 C 269 1486 308 1507 351 1522 C 394 1536 442 1544 494 1544 C 554 1544 608 1535 655 1517 C 702 1499 742 1474 774 1442 C 806 1410 830 1373 847 1331 C 863 1288 872 1242 872 1192 C 872 1143 866 1100 855 1064 C 843 1028 828 995 809 967 C 790 938 768 912 744 888 C 720 864 694 841 668 819 C 634 788 606 760 585 735 C 563 710 547 683 535 654 C 523 625 514 592 510 555 C 506 517 504 471 504 416 L 362 416 Z M 334 207 L 532 207 L 532 0 L 334 0 L 334 207 Z" unicode="?" />
<glyph horiz-adv-x="1524" d="M 760 -29 C 658 -29 565 -11 481 23 C 397 58 326 109 267 176 C 207 243 161 325 129 423 C 96 520 80 631 80 756 C 80 878 97 987 131 1085 C 165 1182 212 1265 272 1333 C 332 1401 404 1453 488 1489 C 572 1525 664 1544 764 1544 C 864 1544 955 1525 1039 1489 C 1122 1453 1194 1401 1254 1335 C 1314 1268 1360 1187 1394 1093 C 1427 999 1444 894 1444 778 C 1444 703 1436 637 1422 580 C 1407 522 1386 474 1360 436 C 1333 397 1300 368 1262 348 C 1224 328 1181 319 1135 319 C 1102 319 1073 323 1048 331 C 1023 339 1001 351 983 366 C 965 380 950 397 938 417 C 926 436 917 457 911 479 C 893 457 873 436 853 418 C 833 399 811 383 788 369 C 765 355 741 345 715 337 C 689 329 662 326 633 326 C 593 326 557 333 525 348 C 493 362 467 384 445 413 C 423 441 406 476 395 518 C 383 560 378 608 379 662 C 379 742 387 815 404 882 C 421 949 445 1007 477 1055 C 508 1103 545 1141 589 1168 C 633 1194 681 1208 735 1208 C 785 1208 828 1197 863 1177 C 897 1157 927 1130 952 1098 L 965 1190 L 1098 1190 L 1022 590 C 1014 531 1022 487 1044 458 C 1066 428 1101 414 1149 414 C 1177 414 1203 420 1227 434 C 1251 448 1271 469 1289 498 C 1307 527 1321 564 1331 610 C 1341 656 1346 711 1346 776 C 1346 880 1331 974 1303 1058 C 1274 1142 1234 1213 1183 1272 C 1131 1330 1070 1375 999 1407 C 927 1438 849 1454 764 1454 C 677 1454 598 1438 526 1406 C 454 1374 393 1329 342 1269 C 290 1209 250 1136 222 1050 C 194 964 180 866 180 758 C 180 646 194 546 222 459 C 250 372 290 299 342 240 C 393 180 454 135 526 105 C 597 74 676 59 762 59 C 830 59 894 67 953 84 C 1012 100 1068 124 1122 154 L 1163 80 C 1135 62 1106 47 1075 34 C 1043 20 1010 9 976 0 C 941 -9 905 -16 869 -21 C 833 -26 796 -29 760 -29 Z M 668 440 C 708 440 745 449 779 469 C 813 489 849 519 885 559 L 938 983 C 912 1018 884 1045 854 1063 C 823 1081 788 1090 748 1090 C 714 1090 683 1079 655 1059 C 627 1039 603 1010 583 974 C 563 938 547 894 536 843 C 524 792 518 736 518 676 C 516 592 529 532 555 495 C 581 458 618 440 668 440 Z" unicode="@" />
<glyph horiz-adv-x="1155" d="M 215 0 L 53 0 L 498 1522 L 657 1522 L 1102 0 L 930 0 L 809 436 L 336 436 L 215 0 Z M 702 817 C 689 861 677 904 666 945 C 654 986 643 1026 633 1064 C 623 1102 613 1139 603 1175 C 593 1211 584 1248 575 1284 L 571 1284 C 561 1247 552 1210 543 1174 C 533 1138 523 1101 513 1063 C 503 1025 492 987 480 947 C 468 907 456 865 444 821 L 379 586 L 768 586 L 702 817 Z" unicode="A" />
<glyph horiz-adv-x="1188" d="M 156 1516 L 598 1516 C 670 1516 734 1508 791 1493 C 847 1477 895 1454 934 1423 C 972 1391 1002 1352 1022 1304 C 1042 1256 1053 1199 1053 1135 C 1053 1081 1046 1035 1032 996 C 1018 956 1000 923 978 895 C 956 867 930 844 901 827 C 872 809 843 796 813 788 L 813 784 C 851 776 888 763 922 745 C 956 727 985 704 1011 674 C 1036 644 1056 608 1071 565 C 1086 522 1094 471 1094 412 C 1094 345 1083 286 1062 235 C 1040 183 1010 140 970 106 C 930 71 882 45 825 27 C 768 9 704 0 633 0 L 156 0 L 156 1516 Z M 588 850 C 636 850 678 854 716 864 C 753 874 784 889 810 910 C 836 930 855 957 869 989 C 882 1021 889 1060 889 1106 C 889 1151 883 1190 872 1222 C 860 1254 843 1281 819 1302 C 795 1322 764 1337 726 1347 C 688 1357 644 1362 592 1362 L 326 1362 L 326 850 L 588 850 Z M 629 150 C 733 150 809 173 857 220 C 904 267 928 336 928 428 C 928 480 920 523 905 559 C 889 594 867 623 839 645 C 811 667 776 682 735 692 C 694 702 648 707 596 707 L 326 707 L 326 150 L 629 150 Z" unicode="B" />
<glyph horiz-adv-x="1200" d="M 633 -27 C 549 -27 474 -10 408 23 C 342 56 285 106 239 172 C 192 238 156 321 131 419 C 106 517 94 632 94 762 C 94 888 106 1000 132 1098 C 158 1195 194 1277 242 1343 C 289 1409 346 1459 413 1493 C 479 1527 553 1544 635 1544 C 705 1544 767 1532 820 1508 C 872 1484 917 1451 955 1409 C 993 1367 1024 1316 1048 1258 C 1072 1199 1090 1135 1104 1065 L 944 1036 C 932 1093 917 1143 900 1187 C 883 1231 862 1267 837 1297 C 812 1326 783 1348 749 1363 C 715 1378 675 1386 631 1386 C 572 1386 520 1371 475 1343 C 429 1315 391 1274 360 1221 C 329 1167 306 1102 290 1025 C 274 948 266 861 266 764 C 266 661 274 570 290 491 C 306 412 329 346 361 292 C 392 238 431 197 477 169 C 523 141 575 127 635 127 C 679 127 719 134 754 149 C 788 163 819 186 845 216 C 871 246 894 285 914 331 C 933 377 949 432 963 496 L 1120 469 C 1105 396 1084 329 1058 269 C 1032 208 999 156 959 112 C 919 68 873 33 819 9 C 765 -14 703 -27 633 -27 Z" unicode="C" />
<glyph horiz-adv-x="1227" d="M 156 1516 L 489 1516 C 593 1516 686 1501 766 1472 C 846 1443 914 1398 968 1337 C 1022 1276 1063 1198 1091 1102 C 1119 1006 1133 892 1133 760 C 1133 626 1118 512 1090 416 C 1062 320 1020 242 966 180 C 911 118 844 73 764 44 C 684 14 592 0 489 0 L 156 0 L 156 1516 Z M 512 154 C 588 154 654 165 710 189 C 766 212 813 248 850 297 C 887 346 915 409 933 485 C 951 561 961 653 961 760 C 961 864 951 953 933 1029 C 915 1104 887 1166 850 1215 C 813 1263 766 1299 710 1323 C 653 1346 586 1358 510 1358 L 328 1358 L 328 154 L 512 154 Z" unicode="D" />
<glyph horiz-adv-x="1040" d="M 156 1516 L 930 1516 L 930 1358 L 328 1358 L 328 879 L 768 879 L 768 723 L 328 723 L 328 156 L 965 156 L 965 0 L 156 0 L 156 1516 Z" unicode="E" />
<glyph horiz-adv-x="979" d="M 156 1516 L 920 1516 L 920 1358 L 328 1358 L 328 868 L 760 868 L 760 713 L 328 713 L 328 0 L 156 0 L 156 1516 Z" unicode="F" />
<glyph horiz-adv-x="1251" d="M 621 -27 C 537 -27 462 -9 397 25 C 331 60 276 111 231 179 C 186 246 152 329 129 427 C 105 525 94 636 94 762 C 94 884 106 994 131 1091 C 155 1188 191 1270 237 1337 C 283 1404 340 1455 407 1491 C 474 1526 550 1544 635 1544 C 702 1544 761 1533 813 1511 C 865 1489 909 1457 947 1416 C 985 1374 1016 1324 1041 1265 C 1066 1205 1086 1139 1102 1065 L 946 1034 C 920 1152 883 1241 834 1299 C 785 1357 717 1386 631 1386 C 575 1386 525 1373 480 1347 C 435 1321 397 1282 365 1230 C 333 1178 309 1113 292 1036 C 274 958 266 868 266 766 C 266 552 298 392 364 286 C 429 180 521 127 639 127 C 739 127 818 164 874 240 C 930 316 959 428 963 578 L 674 578 L 674 725 L 1116 725 L 1116 0 L 979 0 L 979 207 L 977 207 C 965 178 948 150 927 122 C 906 94 881 69 852 47 C 822 25 788 7 750 -6 C 711 -20 668 -27 621 -27 Z" unicode="G" />
<glyph horiz-adv-x="1270" d="M 156 1516 L 328 1516 L 328 879 L 942 879 L 942 1516 L 1114 1516 L 1114 0 L 942 0 L 942 721 L 328 721 L 328 0 L 156 0 L 156 1516 Z" unicode="H" />
<glyph horiz-adv-x="508" d="M 168 1516 L 340 1516 L 340 0 L 168 0 L 168 1516 Z" unicode="I" />
<glyph horiz-adv-x="883" d="M 385 -23 C 324 -23 263 -12 203 8 C 143 28 88 58 39 96 L 121 221 C 158 192 199 169 244 152 C 288 135 331 127 373 127 C 401 127 426 131 450 139 C 473 147 493 159 510 177 C 527 194 540 216 550 243 C 560 270 565 302 565 340 L 565 1516 L 737 1516 L 737 338 C 737 278 728 226 712 181 C 695 136 671 98 641 68 C 610 38 573 15 530 0 C 486 -15 438 -23 385 -23 Z" unicode="J" />
<glyph horiz-adv-x="1163" d="M 156 1516 L 328 1516 L 328 721 C 334 731 342 745 354 763 C 365 781 378 800 392 821 C 406 842 422 864 438 887 C 454 910 469 932 485 954 L 879 1516 L 1061 1516 L 641 928 L 1128 0 L 946 0 L 535 782 L 328 500 L 328 0 L 156 0 L 156 1516 Z" unicode="K" />
<glyph horiz-adv-x="991" d="M 156 1516 L 328 1516 L 328 156 L 928 156 L 928 0 L 156 0 L 156 1516 Z" unicode="L" />
<glyph horiz-adv-x="1505" d="M 156 1516 L 371 1516 L 754 240 L 758 240 L 1133 1516 L 1348 1516 L 1348 0 L 1182 0 L 1182 1241 L 1178 1241 C 1173 1217 1167 1189 1159 1158 C 1151 1126 1142 1094 1133 1060 C 1123 1026 1113 991 1103 956 C 1093 921 1083 888 1073 856 L 813 0 L 678 0 L 418 860 C 408 890 399 922 389 956 C 379 990 369 1024 360 1058 C 350 1092 342 1125 334 1157 C 326 1189 319 1217 313 1243 L 309 1243 L 309 0 L 156 0 L 156 1516 Z" unicode="M" />
<glyph horiz-adv-x="1284" d="M 156 1516 L 356 1516 L 831 588 C 844 562 856 538 867 517 C 878 495 889 474 899 454 C 909 433 920 412 930 390 C 940 368 952 345 965 319 L 969 319 L 969 1516 L 1126 1516 L 1126 0 L 969 0 L 461 977 C 446 1004 433 1029 422 1051 C 410 1073 399 1094 389 1116 C 378 1138 367 1160 356 1184 C 344 1207 331 1234 317 1264 L 313 1264 L 313 0 L 156 0 L 156 1516 Z" unicode="N" />
<glyph horiz-adv-x="1284" d="M 643 -29 C 563 -29 490 -12 423 22 C 356 56 298 106 249 173 C 200 239 162 322 135 420 C 107 518 94 630 94 758 C 94 885 107 998 135 1096 C 162 1194 200 1276 249 1342 C 298 1408 356 1459 423 1493 C 490 1527 563 1544 643 1544 C 721 1544 794 1527 861 1493 C 928 1459 986 1408 1035 1342 C 1083 1276 1121 1194 1149 1096 C 1176 998 1190 885 1190 758 C 1190 630 1176 518 1149 420 C 1121 322 1083 239 1035 173 C 986 106 928 56 861 22 C 794 -12 721 -29 643 -29 Z M 643 127 C 700 127 752 141 798 169 C 844 197 883 237 915 291 C 947 345 972 411 990 489 C 1007 567 1016 657 1016 758 C 1016 858 1007 947 990 1025 C 972 1103 947 1168 915 1222 C 883 1276 844 1316 798 1344 C 752 1372 700 1386 643 1386 C 585 1386 532 1372 486 1344 C 439 1316 399 1276 367 1222 C 334 1168 309 1103 292 1025 C 274 947 266 858 266 758 C 266 657 274 567 292 489 C 309 411 334 345 367 291 C 399 237 439 197 486 169 C 532 141 585 127 643 127 Z" unicode="O" />
<glyph horiz-adv-x="1133" d="M 156 1516 L 580 1516 C 648 1516 711 1507 769 1491 C 826 1475 875 1449 917 1414 C 958 1379 990 1334 1013 1280 C 1035 1225 1047 1159 1047 1083 C 1047 999 1034 928 1010 871 C 985 813 951 767 908 732 C 865 696 814 671 756 656 C 698 640 635 633 569 633 L 326 633 L 326 0 L 156 0 L 156 1516 Z M 575 782 C 625 782 669 787 707 798 C 745 808 777 825 803 849 C 829 873 848 903 861 941 C 874 978 881 1023 881 1077 C 881 1127 874 1170 861 1206 C 848 1242 829 1271 803 1293 C 777 1315 745 1332 707 1342 C 669 1352 624 1358 573 1358 L 326 1358 L 326 782 L 575 782 Z" unicode="P" />
<glyph horiz-adv-x="1284" d="M 954 -385 C 882 -385 820 -376 770 -358 C 719 -340 678 -314 646 -282 C 614 -249 590 -210 576 -164 C 561 -118 553 -68 553 -14 C 485 -4 423 20 367 58 C 311 96 262 148 222 213 C 181 278 149 356 127 447 C 105 538 94 642 94 758 C 94 885 107 998 135 1096 C 162 1194 200 1276 249 1342 C 298 1408 356 1459 424 1493 C 491 1527 565 1544 645 1544 C 723 1544 795 1527 862 1493 C 928 1459 986 1408 1035 1342 C 1083 1276 1121 1194 1149 1096 C 1176 998 1190 885 1190 758 C 1190 638 1178 533 1155 441 C 1131 349 1099 270 1057 206 C 1015 141 966 90 908 53 C 850 15 787 -7 719 -16 C 721 -61 729 -98 743 -127 C 757 -155 775 -178 798 -195 C 821 -211 849 -223 882 -229 C 914 -235 951 -238 993 -238 L 1081 -238 L 1081 -385 L 954 -385 Z M 645 123 C 701 123 752 137 798 165 C 844 193 883 235 915 289 C 947 343 972 410 990 489 C 1007 567 1016 657 1016 758 C 1016 858 1007 947 990 1025 C 972 1103 947 1168 915 1222 C 883 1276 844 1316 798 1344 C 752 1372 701 1386 645 1386 C 587 1386 534 1372 487 1344 C 440 1316 400 1276 368 1222 C 335 1168 310 1103 292 1025 C 274 947 266 858 266 758 C 266 657 274 567 292 489 C 310 410 335 343 368 289 C 400 235 440 193 487 165 C 534 137 587 123 645 123 Z" unicode="Q" />
<glyph horiz-adv-x="1167" d="M 156 1516 L 586 1516 C 659 1516 724 1507 781 1490 C 838 1472 886 1446 926 1410 C 965 1374 995 1330 1016 1276 C 1036 1222 1047 1158 1047 1085 C 1047 1024 1039 970 1024 924 C 1008 878 987 838 961 805 C 935 771 904 744 870 723 C 835 701 798 686 760 676 L 1067 0 L 891 0 L 594 645 L 326 645 L 326 0 L 156 0 L 156 1516 Z M 575 793 C 625 793 669 798 707 808 C 745 818 777 834 803 857 C 829 880 848 910 861 947 C 874 983 881 1029 881 1083 C 881 1133 874 1175 861 1210 C 848 1245 829 1274 804 1296 C 778 1318 746 1333 708 1343 C 670 1353 625 1358 575 1358 L 326 1358 L 326 793 L 575 793 Z" unicode="R" />
<glyph horiz-adv-x="1120" d="M 571 -25 C 507 -25 450 -16 399 0 C 347 17 301 41 260 72 C 218 103 182 141 150 185 C 118 229 91 279 68 334 L 215 401 C 232 361 252 324 275 290 C 298 256 324 227 354 203 C 383 179 416 160 452 147 C 488 133 527 127 571 127 C 615 127 655 132 691 144 C 726 156 756 172 780 193 C 804 214 823 240 836 270 C 849 300 856 333 856 371 C 856 415 847 453 830 486 C 812 518 789 547 761 573 C 732 598 699 621 662 641 C 624 661 585 680 545 700 C 513 715 480 731 447 747 C 414 763 382 781 352 800 C 322 819 293 840 267 864 C 241 887 218 913 198 943 C 178 972 163 1005 152 1042 C 140 1078 135 1120 135 1167 C 135 1222 145 1273 166 1319 C 187 1365 216 1405 253 1439 C 290 1472 334 1498 384 1516 C 434 1534 488 1544 547 1544 C 607 1544 660 1535 708 1518 C 756 1501 798 1478 835 1449 C 872 1420 904 1386 931 1348 C 958 1309 981 1268 999 1225 L 852 1153 C 838 1185 821 1215 803 1244 C 785 1273 763 1299 739 1321 C 714 1343 686 1360 654 1373 C 622 1386 585 1393 545 1393 C 509 1393 476 1387 446 1377 C 416 1366 391 1351 370 1332 C 349 1312 333 1289 322 1262 C 310 1235 305 1206 305 1174 C 305 1130 313 1091 330 1059 C 347 1026 370 997 398 972 C 426 946 459 923 496 903 C 532 883 570 863 610 844 C 642 828 675 812 708 796 C 741 780 773 762 804 743 C 834 723 863 702 890 679 C 916 655 940 629 960 599 C 980 569 995 536 1007 499 C 1018 462 1024 421 1024 375 C 1024 319 1013 267 992 219 C 971 170 941 128 902 92 C 862 56 815 27 759 6 C 703 -14 641 -25 571 -25 Z" unicode="S" />
<glyph horiz-adv-x="1063" d="M 444 1358 L 53 1358 L 53 1516 L 1008 1516 L 1008 1358 L 616 1358 L 616 0 L 444 0 L 444 1358 Z" unicode="T" />
<glyph horiz-adv-x="1233" d="M 616 -27 C 532 -27 460 -14 400 10 C 340 35 292 71 254 117 C 216 163 188 218 170 282 C 152 346 143 418 143 498 L 143 1516 L 315 1516 L 315 520 C 315 456 320 400 330 351 C 340 302 358 261 382 228 C 406 194 437 169 476 151 C 514 133 562 125 618 125 C 674 125 721 133 760 151 C 798 168 830 193 854 227 C 878 261 895 302 906 350 C 916 398 922 454 922 516 L 922 1516 L 1087 1516 L 1087 502 C 1087 424 1078 353 1060 289 C 1042 224 1014 168 976 121 C 938 74 889 38 829 12 C 769 -14 698 -27 616 -27 Z" unicode="U" />
<glyph horiz-adv-x="1145" d="M 53 1516 L 225 1516 L 453 696 C 477 610 499 530 519 456 C 538 382 557 309 575 236 L 580 236 C 588 273 597 310 607 346 C 617 382 627 419 637 456 C 647 493 657 531 668 570 C 678 608 690 649 702 692 L 930 1516 L 1092 1516 L 653 -6 L 492 -6 L 53 1516 Z" unicode="V" />
<glyph horiz-adv-x="1591" d="M 61 1516 L 225 1516 L 389 737 C 397 695 405 657 413 623 C 420 589 427 555 434 521 C 440 487 447 451 455 414 C 462 377 470 335 479 289 L 483 289 C 491 335 498 377 505 414 C 511 451 518 487 525 521 C 532 555 539 589 546 623 C 553 657 561 695 569 737 L 723 1516 L 879 1516 L 1038 717 C 1046 677 1053 641 1061 607 C 1068 573 1075 539 1082 505 C 1089 471 1096 437 1102 402 C 1108 367 1115 329 1122 289 L 1126 289 C 1132 327 1139 363 1146 398 C 1152 433 1159 468 1166 502 C 1172 536 1179 570 1187 605 C 1194 640 1202 677 1210 717 L 1376 1516 L 1530 1516 L 1192 -6 L 1047 -6 L 799 1214 L 795 1214 L 545 -6 L 399 -6 L 61 1516 Z" unicode="W" />
<glyph horiz-adv-x="1137" d="M 477 819 L 104 1516 L 289 1516 L 578 963 L 860 1516 L 1026 1516 L 657 823 L 1098 0 L 918 0 L 561 682 L 205 0 L 37 0 L 477 819 Z" unicode="X" />
<glyph horiz-adv-x="1077" d="M 453 625 L 33 1516 L 209 1516 L 541 782 L 545 782 L 877 1516 L 1042 1516 L 625 629 L 625 0 L 453 0 L 453 625 Z" unicode="Y" />
<glyph horiz-adv-x="1079" d="M 68 129 L 793 1358 L 117 1358 L 117 1516 L 993 1516 L 993 1386 L 272 156 L 993 156 L 993 0 L 68 0 L 68 129 Z" unicode="Z" />
<glyph horiz-adv-x="694" d="M 145 1516 L 621 1516 L 621 1386 L 313 1386 L 313 -281 L 621 -281 L 621 -410 L 145 -410 L 145 1516 Z" unicode="[" />
<glyph horiz-adv-x="979" d="M 29 1516 L 201 1516 L 948 0 L 778 0 L 29 1516 Z" unicode="\" />
<glyph horiz-adv-x="694" d="M 72 -281 L 379 -281 L 379 1386 L 72 1386 L 72 1516 L 547 1516 L 547 -410 L 72 -410 L 72 -281 Z" unicode="]" />
<glyph horiz-adv-x="1169" d="M 526 1516 L 643 1516 L 1038 758 L 883 758 L 586 1341 L 289 758 L 133 758 L 526 1516 Z" unicode="^" />
<glyph horiz-adv-x="881" d="M -6 -133 L 887 -133 L 887 -266 L -6 -266 L -6 -133 Z" unicode="_" />
<glyph horiz-adv-x="909" d="M 180 1516 L 373 1516 L 537 1196 L 426 1196 L 180 1516 Z" unicode="`" />
<glyph horiz-adv-x="965" d="M 332 -14 C 250 -14 187 9 142 57 C 96 104 74 170 74 256 C 74 310 85 360 109 406 C 132 452 168 495 217 533 C 266 571 329 606 405 636 C 481 666 572 691 678 713 L 678 778 C 678 840 664 885 638 914 C 611 943 570 958 516 958 C 483 958 452 954 422 946 C 392 938 364 928 338 915 C 311 902 286 887 263 869 C 239 851 217 833 197 813 L 104 913 C 160 969 224 1015 296 1051 C 367 1086 446 1104 532 1104 C 637 1104 715 1075 765 1019 C 815 963 840 882 840 778 L 840 266 C 840 200 841 146 845 104 C 849 62 856 28 866 0 L 700 0 C 694 21 688 42 684 62 C 680 82 678 108 678 139 C 634 91 582 53 524 26 C 466 0 402 -14 332 -14 Z M 387 121 C 443 121 496 134 546 160 C 596 186 640 220 678 262 L 678 594 C 594 576 524 555 468 532 C 411 509 365 484 331 458 C 297 431 272 402 258 372 C 243 342 236 311 236 279 C 236 224 249 184 276 159 C 302 133 339 121 387 121 Z" unicode="a" />
<glyph horiz-adv-x="1040" d="M 584 -16 C 521 -16 467 -3 421 22 C 375 48 334 83 297 129 L 297 0 L 131 0 L 131 1513 L 297 1513 L 297 942 C 313 962 332 982 352 1002 C 372 1022 395 1039 419 1054 C 443 1069 470 1081 499 1090 C 528 1099 560 1104 594 1104 C 646 1104 695 1093 740 1071 C 785 1049 824 1015 857 969 C 890 923 916 865 935 795 C 953 724 963 640 963 543 C 963 445 953 360 933 290 C 913 220 887 162 853 117 C 819 71 779 38 733 16 C 687 -5 637 -16 584 -16 Z M 553 121 C 589 121 621 129 651 145 C 681 161 706 186 728 220 C 749 254 765 297 777 350 C 789 403 795 467 795 541 C 795 613 789 675 777 728 C 765 780 748 824 726 859 C 704 893 679 919 649 936 C 619 952 587 961 551 961 C 525 961 500 957 477 949 C 454 941 432 930 412 916 C 392 902 372 885 353 867 C 334 849 315 829 297 809 L 297 268 C 336 220 376 184 418 159 C 460 133 505 121 553 121 Z" unicode="b" />
<glyph horiz-adv-x="934" d="M 492 -23 C 434 -23 381 -11 331 13 C 281 37 237 72 200 120 C 163 167 134 226 112 296 C 90 366 80 448 80 541 C 80 638 91 722 114 793 C 136 863 167 922 206 968 C 244 1014 289 1048 340 1070 C 391 1092 445 1104 502 1104 C 556 1104 603 1095 643 1078 C 683 1060 717 1037 746 1008 C 774 978 798 944 817 905 C 835 866 851 825 864 782 L 713 741 C 703 775 691 805 679 832 C 667 859 652 882 635 901 C 618 920 598 935 576 945 C 554 955 528 961 498 961 C 463 961 430 953 400 937 C 370 921 343 896 320 862 C 297 828 279 784 266 731 C 252 678 246 615 246 541 C 246 475 251 416 263 364 C 274 312 290 267 312 231 C 333 194 359 166 391 146 C 422 126 458 117 498 117 C 555 117 602 134 639 170 C 675 206 704 262 725 340 L 870 301 C 840 199 794 120 732 63 C 670 5 590 -23 492 -23 Z" unicode="c" />
<glyph horiz-adv-x="1040" d="M 449 -16 C 396 -16 347 -5 302 16 C 257 37 218 70 186 116 C 153 161 127 219 109 289 C 91 359 82 443 82 541 C 82 639 91 723 111 794 C 130 864 156 923 190 969 C 224 1015 263 1049 309 1071 C 355 1093 404 1104 457 1104 C 519 1104 574 1090 622 1062 C 670 1034 712 997 748 952 L 748 1516 L 911 1516 L 911 266 C 911 200 913 146 917 104 C 921 62 928 28 938 0 L 768 0 C 764 8 761 19 759 31 C 757 43 755 56 753 69 C 751 82 750 95 749 108 C 748 120 748 131 748 141 C 730 120 711 100 691 81 C 670 62 647 45 623 31 C 599 17 572 5 543 -3 C 514 -11 483 -16 449 -16 Z M 494 121 C 518 121 541 125 564 133 C 587 141 609 151 631 165 C 653 178 673 194 693 212 C 712 230 730 248 748 268 L 748 811 C 708 857 668 893 626 920 C 584 947 539 961 492 961 C 455 961 422 952 392 936 C 362 920 336 894 315 860 C 293 826 277 782 265 728 C 253 674 248 611 248 537 C 248 465 254 402 266 350 C 278 298 294 255 316 221 C 338 187 364 161 394 145 C 424 129 457 121 494 121 Z" unicode="d" />
<glyph horiz-adv-x="963" d="M 496 -23 C 436 -23 381 -11 331 12 C 280 35 236 70 199 117 C 162 164 133 223 112 294 C 90 364 80 447 80 541 C 80 638 91 722 115 793 C 138 863 169 922 208 968 C 246 1014 291 1048 341 1070 C 391 1092 444 1104 498 1104 C 558 1104 611 1092 659 1068 C 706 1044 746 1008 780 962 C 813 915 838 857 856 787 C 874 717 883 637 883 547 L 883 506 L 244 506 C 247 378 271 281 317 215 C 363 149 425 117 504 117 C 536 117 564 121 589 130 C 613 138 636 151 656 167 C 676 183 695 202 712 226 C 728 249 744 275 760 305 L 874 233 C 855 194 833 159 807 127 C 781 95 753 68 721 46 C 689 24 655 7 617 -5 C 579 -17 538 -23 496 -23 Z M 725 631 C 722 679 715 724 705 765 C 695 806 680 841 662 870 C 643 899 620 922 592 938 C 564 954 532 963 496 963 C 466 963 436 956 408 943 C 380 930 354 910 332 883 C 310 856 291 822 276 780 C 260 738 250 689 246 631 L 725 631 Z" unicode="e" />
<glyph horiz-adv-x="608" d="M 201 944 L 43 944 L 43 1081 L 201 1081 L 201 1245 C 201 1333 225 1401 273 1448 C 321 1494 395 1518 496 1518 C 500 1518 507 1517 515 1517 C 523 1517 532 1516 540 1516 C 548 1516 556 1515 563 1515 C 569 1514 573 1513 575 1513 L 575 1376 C 573 1376 570 1376 564 1376 C 558 1376 552 1377 545 1377 C 538 1377 531 1377 525 1377 C 519 1377 515 1378 514 1378 C 492 1378 472 1375 454 1371 C 436 1367 420 1359 407 1349 C 393 1338 383 1324 376 1306 C 368 1288 365 1267 365 1241 L 365 1081 L 567 1081 L 567 944 L 365 944 L 365 0 L 201 0 L 201 944 Z" unicode="f" />
<glyph horiz-adv-x="1010" d="M 741 995 C 770 1019 804 1041 844 1059 C 884 1077 922 1089 958 1096 L 958 940 C 933 940 907 938 879 934 C 851 930 823 922 795 911 C 810 883 822 852 831 819 C 839 786 844 751 844 713 C 844 653 834 599 816 551 C 797 503 771 463 738 429 C 705 395 666 370 620 352 C 574 334 525 326 471 326 C 415 326 366 334 324 350 C 305 340 290 328 279 314 C 267 300 262 284 262 266 C 262 256 263 247 267 239 C 270 231 276 225 286 219 C 295 213 308 208 324 204 C 340 200 361 196 387 193 L 555 172 C 621 164 678 153 725 139 C 772 125 810 106 840 84 C 870 62 891 35 905 4 C 919 -26 926 -62 926 -104 C 926 -152 914 -195 890 -233 C 866 -271 834 -303 792 -329 C 750 -355 700 -375 643 -389 C 585 -403 523 -410 457 -410 C 379 -410 314 -404 260 -392 C 206 -380 162 -362 128 -340 C 94 -318 69 -290 54 -258 C 38 -226 31 -190 31 -150 C 31 -95 46 -47 78 -7 C 109 33 152 66 207 92 C 178 107 156 126 140 148 C 124 170 117 196 117 227 C 117 259 128 290 150 320 C 172 350 199 376 233 397 C 187 432 152 477 127 531 C 102 585 90 646 90 713 C 90 771 99 824 118 872 C 136 920 162 961 196 995 C 230 1029 270 1056 316 1075 C 362 1094 413 1104 469 1104 C 525 1104 577 1094 623 1076 C 669 1057 708 1030 741 995 Z M 471 449 C 505 449 535 455 562 467 C 589 479 612 497 631 520 C 649 542 663 570 673 602 C 683 634 688 671 688 711 C 688 791 669 855 632 902 C 595 949 541 973 469 973 C 434 973 403 966 376 954 C 348 941 325 923 307 900 C 288 877 274 850 264 818 C 254 786 250 750 250 711 C 250 671 255 634 265 602 C 275 570 289 542 308 520 C 327 497 350 479 378 467 C 405 455 436 449 471 449 Z M 322 59 C 275 37 240 10 218 -22 C 195 -54 184 -89 184 -125 C 184 -153 189 -177 199 -198 C 209 -218 225 -235 248 -249 C 270 -263 300 -273 338 -280 C 375 -287 421 -291 475 -291 C 518 -291 558 -287 594 -279 C 630 -271 662 -261 688 -247 C 714 -233 735 -215 750 -195 C 764 -174 772 -151 772 -125 C 772 -103 768 -83 760 -66 C 752 -49 739 -34 721 -21 C 703 -8 678 2 647 11 C 615 19 576 27 528 33 L 352 55 C 346 56 341 57 337 57 C 332 57 327 57 322 59 Z" unicode="g" />
<glyph horiz-adv-x="1028" d="M 131 1516 L 297 1516 L 297 932 C 315 952 336 972 361 992 C 385 1012 412 1031 442 1048 C 471 1064 502 1078 536 1088 C 569 1098 603 1104 639 1104 C 726 1104 792 1078 837 1027 C 882 976 905 901 905 803 L 905 0 L 741 0 L 741 768 C 741 832 729 880 706 911 C 682 942 643 958 588 958 C 562 958 535 953 509 944 C 482 935 456 923 431 909 C 405 894 381 877 359 859 C 336 840 315 821 297 803 L 297 0 L 131 0 L 131 1516 Z" unicode="h" />
<glyph horiz-adv-x="451" d="M 141 1475 L 309 1475 L 309 1296 L 141 1296 L 141 1475 Z M 141 1081 L 307 1081 L 307 0 L 141 0 L 141 1081 Z" unicode="i" />
<glyph horiz-adv-x="451" d="M 141 1475 L 309 1475 L 309 1296 L 141 1296 L 141 1475 Z M 82 -412 C 76 -412 69 -411 61 -411 C 52 -411 43 -410 35 -409 C 26 -408 18 -407 11 -406 C 3 -405 -1 -404 -4 -403 L -4 -274 C 2 -275 11 -276 23 -277 C 35 -278 45 -279 53 -279 C 83 -279 105 -269 119 -250 C 133 -231 141 -202 141 -162 L 141 1081 L 307 1081 L 307 -168 C 307 -208 303 -244 295 -274 C 287 -304 275 -330 257 -350 C 239 -370 216 -386 188 -396 C 159 -406 124 -412 82 -412 Z" unicode="j" />
<glyph horiz-adv-x="940" d="M 131 1516 L 295 1516 L 295 524 C 300 534 308 547 319 563 C 330 579 342 596 356 615 C 370 634 384 654 400 675 C 415 696 430 717 444 737 L 692 1081 L 862 1081 L 569 686 L 899 0 L 729 0 L 467 551 L 295 324 L 295 0 L 131 0 L 131 1516 Z" unicode="k" />
<glyph horiz-adv-x="451" d="M 141 1516 L 307 1516 L 307 0 L 141 0 L 141 1516 Z" unicode="l" />
<glyph horiz-adv-x="1595" d="M 131 1081 L 297 1081 L 297 932 C 316 952 338 973 362 994 C 386 1014 413 1033 441 1049 C 469 1065 498 1079 530 1089 C 561 1099 593 1104 627 1104 C 663 1104 695 1100 723 1092 C 751 1084 775 1073 795 1059 C 815 1044 831 1026 843 1005 C 855 983 865 959 872 932 C 892 954 915 975 940 996 C 964 1016 991 1035 1019 1051 C 1047 1067 1078 1079 1110 1089 C 1142 1099 1175 1104 1210 1104 C 1297 1104 1363 1078 1407 1027 C 1451 976 1473 901 1473 803 L 1473 0 L 1309 0 L 1309 768 C 1309 832 1297 880 1274 911 C 1251 942 1212 958 1157 958 C 1131 958 1107 954 1083 946 C 1059 938 1035 927 1012 914 C 989 900 967 885 946 867 C 924 849 904 831 885 813 L 885 0 L 719 0 L 719 768 C 719 800 716 828 712 852 C 707 876 699 895 688 911 C 677 927 662 938 643 946 C 624 954 601 958 573 958 C 527 958 480 943 434 915 C 388 887 342 850 297 805 L 297 0 L 131 0 L 131 1081 Z" unicode="m" />
<glyph horiz-adv-x="1028" d="M 131 1081 L 297 1081 L 297 932 C 315 952 336 972 361 992 C 385 1012 412 1031 442 1048 C 471 1064 502 1078 536 1088 C 569 1098 603 1104 639 1104 C 726 1104 792 1078 837 1027 C 882 976 905 901 905 803 L 905 0 L 741 0 L 741 768 C 741 832 729 880 706 911 C 682 942 643 958 588 958 C 562 958 535 953 509 944 C 482 935 456 923 431 909 C 405 894 381 877 359 859 C 336 840 315 821 297 803 L 297 0 L 131 0 L 131 1081 Z" unicode="n" />
<glyph horiz-adv-x="1014" d="M 508 -23 C 448 -23 392 -11 340 13 C 288 37 242 72 204 120 C 165 167 135 226 113 296 C 91 366 80 448 80 541 C 80 633 91 715 113 785 C 135 855 165 914 203 962 C 241 1009 287 1044 339 1068 C 391 1092 447 1104 508 1104 C 568 1104 624 1092 676 1068 C 728 1044 773 1009 811 962 C 849 914 879 855 901 785 C 923 715 934 633 934 541 C 934 448 923 366 901 296 C 879 226 849 167 811 120 C 773 72 728 37 676 13 C 624 -11 568 -23 508 -23 Z M 508 117 C 550 117 588 127 621 147 C 653 167 680 195 702 232 C 724 269 740 314 751 366 C 762 418 768 477 768 541 C 768 599 762 653 752 704 C 742 755 726 800 705 838 C 684 876 657 906 624 928 C 591 950 552 961 508 961 C 464 961 426 951 394 931 C 361 911 334 882 312 845 C 290 808 273 764 262 712 C 251 660 246 603 246 541 C 246 481 251 426 261 375 C 271 323 286 278 307 240 C 328 202 355 172 388 150 C 421 128 461 117 508 117 Z" unicode="o" />
<glyph horiz-adv-x="1040" d="M 131 1081 L 297 1081 L 297 944 C 313 964 331 983 351 1002 C 371 1021 394 1038 418 1053 C 442 1068 469 1080 499 1090 C 528 1099 560 1104 594 1104 C 646 1104 695 1093 740 1071 C 785 1049 824 1015 857 969 C 889 923 915 865 933 795 C 951 724 961 640 961 543 C 961 445 951 360 932 290 C 912 220 886 162 852 117 C 818 71 779 38 733 16 C 687 -5 637 -16 584 -16 C 521 -16 466 -2 420 23 C 374 49 333 85 297 131 L 297 -410 L 131 -410 L 131 1081 Z M 553 121 C 589 121 621 129 651 145 C 681 161 706 186 728 220 C 749 254 765 297 777 350 C 789 403 795 467 795 541 C 795 613 789 675 777 728 C 765 780 748 824 726 859 C 704 893 679 919 649 936 C 619 952 587 961 551 961 C 526 961 502 956 479 948 C 455 939 433 928 411 914 C 389 900 369 884 350 866 C 330 848 313 829 297 811 L 297 268 C 336 220 376 184 418 159 C 460 133 505 121 553 121 Z" unicode="p" />
<glyph horiz-adv-x="1040" d="M 743 141 C 726 121 708 101 688 82 C 668 63 646 46 622 31 C 598 16 571 4 543 -4 C 514 -13 483 -18 449 -18 C 396 -18 347 -7 302 14 C 257 35 218 68 186 113 C 153 158 127 216 109 286 C 91 356 82 441 82 539 C 82 637 91 721 110 792 C 128 863 154 922 187 968 C 220 1014 259 1048 304 1070 C 349 1092 398 1104 451 1104 C 481 1104 510 1100 538 1092 C 565 1084 591 1073 615 1059 C 639 1045 661 1028 682 1009 C 703 989 723 968 743 946 L 743 1081 L 909 1081 L 909 -410 L 743 -410 L 743 141 Z M 494 119 C 518 119 542 122 564 130 C 586 137 607 147 627 161 C 647 174 666 189 685 207 C 704 225 723 244 743 266 L 743 809 C 703 855 664 891 624 919 C 584 947 540 961 492 961 C 455 961 422 953 392 937 C 362 921 336 896 315 862 C 293 828 277 784 265 731 C 253 678 248 615 248 541 C 248 468 254 405 266 352 C 278 299 294 255 316 221 C 338 186 364 160 394 144 C 424 127 457 119 494 119 Z" unicode="q" />
<glyph horiz-adv-x="707" d="M 131 1081 L 297 1081 L 297 895 L 301 895 C 316 922 334 948 356 973 C 378 998 403 1020 432 1040 C 460 1059 492 1074 527 1086 C 562 1098 601 1104 643 1104 L 666 1104 L 655 948 C 649 948 644 948 639 949 C 634 949 629 949 625 949 C 621 949 618 950 616 950 C 580 950 547 944 515 933 C 483 922 454 907 427 888 C 400 868 376 845 354 818 C 332 790 313 761 297 729 L 297 0 L 131 0 L 131 1081 Z" unicode="r" />
<glyph horiz-adv-x="891" d="M 444 -23 C 350 -23 270 -3 204 37 C 137 77 83 131 41 199 L 154 281 C 190 226 233 184 284 156 C 334 127 388 113 446 113 C 515 113 568 127 606 155 C 643 183 662 222 662 272 C 662 305 654 333 638 356 C 622 378 600 398 574 415 C 547 431 517 446 483 459 C 449 472 415 485 380 499 C 344 512 310 527 276 544 C 242 560 212 580 186 604 C 159 628 138 656 122 690 C 106 724 98 765 98 813 C 98 855 106 895 123 931 C 140 967 164 997 194 1023 C 224 1048 260 1068 302 1082 C 344 1096 390 1104 440 1104 C 520 1104 590 1086 649 1051 C 708 1016 757 969 797 909 L 686 823 C 658 865 623 899 583 926 C 542 953 494 967 438 967 C 376 967 331 953 302 925 C 272 897 258 863 258 821 C 258 787 266 759 282 737 C 298 714 319 694 345 678 C 371 662 401 648 435 636 C 468 624 502 611 537 598 C 572 584 606 570 640 554 C 673 538 703 517 729 493 C 755 469 777 440 793 406 C 809 372 817 330 817 281 C 817 233 807 191 788 153 C 768 115 742 84 708 58 C 674 32 635 12 590 -2 C 544 -16 496 -23 444 -23 Z" unicode="s" />
<glyph horiz-adv-x="666" d="M 467 -12 C 417 -12 375 -7 341 1 C 307 10 279 25 258 45 C 236 65 221 92 211 125 C 201 157 197 197 197 244 L 197 944 L 37 944 L 37 1081 L 197 1081 L 197 1466 L 360 1466 L 360 1081 L 598 1081 L 598 944 L 360 944 L 360 281 C 360 253 362 229 366 209 C 370 189 378 172 389 159 C 399 146 414 136 433 130 C 451 124 475 121 504 121 C 520 121 537 122 554 125 C 571 127 585 131 596 135 L 596 2 C 590 0 582 -1 572 -3 C 562 -5 551 -6 539 -8 C 527 -9 515 -10 503 -11 C 491 -11 479 -12 467 -12 Z" unicode="t" />
<glyph horiz-adv-x="1028" d="M 389 -23 C 301 -23 235 2 190 53 C 145 104 123 179 123 279 L 123 1081 L 287 1081 L 287 309 C 287 245 299 198 323 167 C 347 136 388 121 446 121 C 497 121 546 135 594 164 C 641 193 687 230 731 276 L 731 1081 L 897 1081 L 897 0 L 731 0 L 731 150 C 710 127 687 105 663 84 C 638 63 611 45 583 29 C 554 13 523 0 491 -9 C 459 -18 425 -23 389 -23 Z" unicode="u" />
<glyph horiz-adv-x="903" d="M 37 1081 L 203 1081 L 379 467 C 385 443 390 421 396 399 C 402 377 408 355 414 332 C 420 309 427 285 434 260 C 441 234 449 206 457 176 L 461 176 C 467 206 474 233 480 259 C 486 284 493 308 499 331 C 505 353 511 376 517 398 C 523 420 530 443 537 467 L 711 1081 L 866 1081 L 539 -4 L 365 -4 L 37 1081 Z" unicode="v" />
<glyph horiz-adv-x="1307" d="M 39 1081 L 199 1081 L 332 539 C 338 512 344 487 350 464 C 355 441 360 418 365 395 C 370 372 375 348 381 323 C 386 298 392 270 399 238 L 403 238 C 409 268 414 296 419 322 C 424 348 429 372 434 396 C 439 420 444 443 450 467 C 456 491 462 517 469 545 L 588 1081 L 733 1081 L 854 549 C 860 521 867 494 873 469 C 879 444 884 419 890 394 C 895 369 900 344 906 318 C 911 292 916 264 922 236 L 926 236 C 931 265 936 293 942 319 C 948 345 953 370 959 395 C 964 419 970 444 976 469 C 982 494 988 521 995 549 L 1122 1081 L 1268 1081 L 993 -4 L 848 -4 L 657 821 L 653 821 L 459 -4 L 315 -4 L 39 1081 Z" unicode="w" />
<glyph horiz-adv-x="895" d="M 362 565 L 70 1081 L 242 1081 L 461 690 L 668 1081 L 827 1081 L 535 569 L 860 0 L 688 0 L 442 446 L 197 0 L 37 0 L 362 565 Z" unicode="x" />
<glyph horiz-adv-x="932" d="M 180 -412 C 144 -412 110 -409 80 -403 C 50 -397 27 -392 12 -387 L 45 -256 C 58 -259 76 -262 100 -266 C 124 -270 149 -272 176 -272 C 199 -272 219 -268 236 -262 C 253 -255 268 -245 281 -231 C 294 -217 305 -199 315 -178 C 325 -157 334 -132 344 -104 L 375 -10 L 37 1081 L 207 1081 L 371 516 C 379 486 387 457 395 431 C 403 404 410 377 417 351 C 424 325 431 298 438 272 C 444 246 451 218 459 190 L 463 190 C 471 220 478 248 485 276 C 492 303 499 330 507 358 C 515 385 522 412 530 440 C 538 468 546 497 555 528 L 715 1081 L 872 1081 L 500 -119 C 484 -168 467 -211 449 -248 C 431 -284 410 -315 386 -339 C 362 -363 333 -382 300 -394 C 266 -406 226 -412 180 -412 Z" unicode="y" />
<glyph horiz-adv-x="881" d="M 66 106 L 592 944 L 111 944 L 111 1081 L 788 1081 L 788 973 L 262 135 L 811 135 L 811 0 L 66 0 L 66 106 Z" unicode="z" />
<glyph horiz-adv-x="686" d="M 502 -410 C 457 -410 419 -403 387 -391 C 355 -378 329 -360 309 -336 C 289 -312 274 -282 264 -248 C 254 -213 250 -173 250 -129 L 250 250 C 250 300 246 340 238 371 C 230 402 219 426 203 444 C 187 461 167 473 143 479 C 119 485 90 489 57 489 L 57 616 C 91 616 120 619 144 626 C 168 632 188 644 204 662 C 220 680 231 704 239 735 C 246 766 250 806 250 856 L 250 1235 C 250 1279 254 1319 264 1354 C 274 1388 289 1418 310 1442 C 331 1466 358 1484 390 1497 C 422 1509 460 1516 506 1516 L 631 1516 L 631 1386 L 555 1386 C 507 1386 472 1373 450 1349 C 428 1324 418 1286 418 1235 L 418 848 C 418 798 414 756 407 723 C 400 689 390 662 377 640 C 363 618 347 600 328 588 C 309 575 288 564 264 555 L 264 551 C 288 541 309 530 328 518 C 347 505 363 488 377 466 C 390 444 400 416 407 383 C 414 349 418 308 418 258 L 418 -131 C 418 -182 428 -220 450 -244 C 472 -268 507 -281 555 -281 L 631 -281 L 631 -410 L 502 -410 L 502 -410 Z" unicode="{" />
<glyph horiz-adv-x="631" d="M 233 1516 L 397 1516 L 397 -410 L 233 -410 L 233 1516 Z" unicode="|" />
<glyph horiz-adv-x="686" d="M 55 -281 L 131 -281 C 179 -281 213 -268 235 -244 C 257 -220 268 -182 268 -131 L 268 264 C 268 314 271 355 278 388 C 285 420 295 447 309 468 C 322 489 338 506 357 518 C 376 530 398 541 422 551 L 422 555 C 398 564 376 575 357 587 C 338 599 322 615 309 636 C 295 657 285 684 278 717 C 271 750 268 792 268 842 L 268 1235 C 268 1286 257 1324 235 1349 C 213 1373 179 1386 131 1386 L 55 1386 L 55 1516 L 188 1516 C 233 1516 271 1510 303 1498 C 334 1486 359 1468 379 1445 C 399 1421 413 1393 422 1359 C 431 1325 436 1285 436 1241 L 436 856 C 436 806 439 766 447 735 C 454 704 465 680 481 662 C 497 644 517 632 541 626 C 565 619 595 616 629 616 L 629 489 C 595 489 566 485 542 479 C 518 473 498 461 482 444 C 466 426 455 402 447 371 C 439 340 436 300 436 250 L 436 -135 C 436 -179 431 -219 422 -253 C 413 -287 399 -315 379 -339 C 359 -362 334 -380 303 -392 C 271 -404 234 -410 190 -410 L 55 -410 L 55 -281 Z" unicode="}" />
<glyph horiz-adv-x="1139" d="M 809 535 C 767 535 725 541 681 554 C 637 566 593 580 551 596 C 509 611 469 625 431 638 C 393 650 360 657 332 657 C 309 657 290 650 274 637 C 258 623 247 599 242 563 L 123 578 C 131 654 153 711 190 748 C 226 784 273 803 330 803 C 357 803 385 800 414 794 C 443 788 472 780 501 771 C 529 761 558 751 586 741 C 614 731 641 721 667 712 C 693 702 717 695 740 689 C 763 683 784 680 803 680 C 815 680 826 681 837 684 C 847 687 857 692 865 699 C 873 706 880 716 886 728 C 891 740 895 755 897 774 L 1016 760 C 1007 682 985 625 950 589 C 914 553 867 535 809 535 Z" unicode="~" />
<glyph horiz-adv-x="838" d="" unicode="₀" />
<glyph horiz-adv-x="608" d="" unicode="₁" />
<glyph horiz-adv-x="698" d="" unicode="₂" />
<glyph horiz-adv-x="719" d="" unicode="₃" />
<glyph horiz-adv-x="735" d="" unicode="₄" />
<glyph horiz-adv-x="745" d="" unicode="₅" />
<glyph horiz-adv-x="772" d="" unicode="₆" />
<glyph horiz-adv-x="664" d="" unicode="₇" />
<glyph horiz-adv-x="770" d="" unicode="₈" />
<glyph horiz-adv-x="772" d="" unicode="₉" />
<glyph horiz-adv-x="408" d="" unicode=" " />
<glyph horiz-adv-x="575" d="M 186 1516 L 383 1516 L 383 1311 L 186 1311 L 186 1516 Z M 225 1100 L 344 1100 L 385 0 L 186 0 L 225 1100 Z" unicode="¡" />
<glyph horiz-adv-x="934" d="M 299 31 C 267 51 237 76 210 108 C 183 139 160 176 141 219 C 121 261 106 309 96 363 C 85 417 80 476 80 541 C 80 638 91 722 114 793 C 136 863 167 922 206 968 C 244 1014 289 1048 340 1070 C 391 1092 445 1104 502 1104 L 530 1104 L 571 1294 L 698 1294 L 651 1075 C 680 1062 706 1045 728 1025 C 750 1005 770 982 787 957 C 804 931 819 904 831 874 C 843 844 854 814 864 782 L 713 741 C 701 782 688 818 672 850 C 656 881 636 906 614 926 L 438 119 C 447 115 457 113 467 112 C 477 111 487 111 498 111 C 555 111 602 129 639 167 C 675 205 704 262 725 340 L 870 301 C 840 199 794 120 732 63 C 670 5 590 -23 492 -23 C 465 -23 440 -20 416 -14 L 365 -246 L 240 -246 L 299 31 Z M 498 967 C 463 967 430 958 400 942 C 370 925 343 899 320 864 C 297 829 279 785 266 732 C 252 678 246 615 246 541 C 246 462 254 393 270 333 C 286 273 309 224 340 186 L 508 967 L 498 967 Z" unicode="¢" />
<glyph horiz-adv-x="1102" d="M 152 725 L 152 856 L 326 856 C 314 882 302 909 292 935 C 281 961 271 987 263 1013 C 255 1039 248 1064 243 1090 C 238 1116 236 1141 236 1167 C 236 1224 244 1276 261 1323 C 277 1369 301 1409 332 1442 C 362 1474 400 1499 444 1517 C 488 1535 537 1544 592 1544 C 655 1544 709 1533 753 1513 C 797 1492 834 1464 862 1429 C 890 1393 912 1352 926 1305 C 940 1258 950 1209 954 1157 L 799 1139 C 795 1177 789 1211 781 1243 C 772 1275 760 1302 744 1325 C 728 1348 707 1366 682 1379 C 656 1392 626 1399 590 1399 C 531 1399 484 1380 449 1342 C 414 1304 397 1247 397 1171 C 397 1145 399 1120 405 1094 C 410 1068 417 1043 426 1017 C 435 991 445 964 457 938 C 469 911 481 884 494 856 L 788 856 L 788 725 L 549 725 C 565 681 579 635 591 587 C 602 539 608 488 608 436 C 608 356 596 283 573 219 C 604 190 635 165 665 144 C 695 123 728 113 762 113 C 786 113 808 118 827 128 C 846 138 862 153 874 175 C 886 197 896 225 903 260 C 909 294 913 337 915 387 L 1061 387 C 1059 325 1053 269 1043 219 C 1033 168 1017 124 995 87 C 973 50 944 21 908 1 C 872 -18 827 -29 774 -29 C 746 -29 721 -25 697 -18 C 673 -10 651 0 630 11 C 609 23 589 38 570 54 C 550 70 532 86 514 104 C 484 62 447 29 404 6 C 361 -17 312 -29 258 -29 C 229 -29 201 -24 174 -15 C 147 -6 123 6 102 24 C 81 41 64 62 52 88 C 39 114 33 144 33 178 C 33 212 38 243 50 271 C 61 299 77 324 97 345 C 117 366 141 382 169 394 C 197 406 228 412 262 412 C 299 412 333 404 364 388 C 395 372 425 353 455 330 C 456 344 457 358 458 374 C 458 390 459 406 459 424 C 459 477 451 528 437 578 C 423 628 405 677 385 725 L 152 725 Z M 422 199 C 396 225 370 248 344 266 C 318 284 290 293 262 293 C 232 293 207 283 189 264 C 171 244 162 218 162 184 C 162 152 171 127 191 110 C 210 92 234 84 262 84 C 296 84 326 92 354 110 C 382 128 404 157 422 199 Z" unicode="£" />
<glyph horiz-adv-x="1152" d="M 1056 392 L 940 284 L 740 500 C 692 468 636 452 572 452 C 510 452 456 468 408 500 L 208 284 L 92 392 L 300 608 C 281 634 268 660 262 686 C 255 711 252 742 252 780 C 252 812 255 842 262 870 C 268 898 281 925 300 952 L 92 1168 L 208 1276 L 408 1060 C 456 1092 510 1108 572 1108 C 636 1108 692 1092 740 1060 L 944 1276 L 1060 1156 L 852 952 C 870 925 883 898 890 872 C 896 845 900 814 900 780 C 900 716 882 658 848 608 L 1056 392 Z M 748 780 C 748 833 731 876 698 910 C 664 943 622 960 572 960 C 521 960 480 943 448 910 C 416 876 400 833 400 780 C 400 726 416 684 450 652 C 483 620 524 604 572 604 C 625 604 668 620 700 652 C 732 684 748 726 748 780 Z" unicode="¤" />
<glyph horiz-adv-x="1077" d="M 621 350 L 975 350 L 975 221 L 621 221 L 621 0 L 457 0 L 457 221 L 102 221 L 102 350 L 457 350 L 457 530 L 102 530 L 102 659 L 438 659 L 33 1516 L 209 1516 L 541 782 L 545 782 L 877 1516 L 1042 1516 L 637 659 L 975 659 L 975 530 L 621 530 L 621 350 Z" unicode="¥" />
<glyph horiz-adv-x="631" d="M 233 1516 L 397 1516 L 397 678 L 233 678 L 233 1516 Z M 233 428 L 397 428 L 397 -410 L 233 -410 L 233 428 Z" unicode="¦" />
<glyph horiz-adv-x="965" d="M 475 -418 C 413 -418 361 -409 319 -393 C 277 -376 242 -353 214 -324 C 186 -294 163 -260 147 -220 C 131 -180 118 -136 109 -90 L 256 -51 C 264 -85 273 -116 284 -144 C 294 -172 308 -196 325 -216 C 341 -236 362 -252 386 -264 C 410 -275 439 -281 473 -281 C 504 -281 531 -276 553 -267 C 575 -258 593 -246 607 -230 C 621 -214 631 -195 637 -173 C 643 -151 647 -128 647 -104 C 647 -77 642 -52 633 -29 C 623 -5 609 17 591 39 C 572 61 549 84 521 107 C 493 129 460 154 422 180 C 368 215 321 248 279 278 C 237 308 202 339 173 371 C 144 403 122 437 107 473 C 91 509 84 550 84 598 C 84 635 90 670 103 703 C 116 736 133 767 154 795 C 175 823 199 848 226 871 C 253 893 281 913 309 930 C 281 952 258 975 238 997 C 218 1019 201 1042 189 1066 C 176 1090 167 1114 161 1140 C 155 1165 152 1193 152 1223 C 152 1267 159 1308 175 1347 C 190 1386 212 1420 241 1450 C 270 1480 305 1503 347 1520 C 389 1537 436 1546 489 1546 C 551 1546 604 1537 647 1521 C 690 1504 726 1481 754 1451 C 782 1421 805 1386 821 1346 C 837 1306 850 1262 860 1214 L 711 1178 C 703 1213 693 1245 683 1273 C 672 1301 658 1324 641 1344 C 624 1364 603 1379 579 1389 C 555 1399 526 1405 492 1405 C 462 1405 435 1400 413 1391 C 390 1382 371 1370 356 1354 C 341 1338 330 1320 322 1299 C 314 1278 311 1255 311 1231 C 311 1203 315 1178 325 1155 C 335 1131 349 1109 369 1087 C 389 1065 413 1042 442 1019 C 471 996 505 972 545 946 C 597 910 644 877 686 847 C 727 817 762 786 791 755 C 819 723 841 689 856 653 C 871 617 879 575 879 528 C 879 490 872 455 860 422 C 847 389 830 359 809 331 C 788 303 764 277 737 255 C 710 232 683 213 655 197 C 682 173 705 149 725 127 C 744 105 760 82 772 59 C 784 36 792 12 798 -13 C 804 -38 807 -66 807 -96 C 807 -140 799 -181 784 -220 C 769 -259 747 -293 719 -323 C 691 -352 656 -375 615 -392 C 573 -409 527 -418 475 -418 Z M 551 279 C 605 309 647 343 678 381 C 709 419 725 462 725 510 C 725 539 720 565 711 589 C 701 612 686 635 665 658 C 643 681 615 705 581 731 C 547 757 505 787 455 821 C 448 825 441 829 435 834 C 428 839 422 844 416 848 C 361 819 318 785 286 746 C 254 707 238 664 238 618 C 238 588 242 562 252 538 C 262 514 277 491 299 468 C 321 444 349 420 383 394 C 417 368 460 338 510 305 C 516 299 522 295 530 291 C 538 287 545 283 551 279 Z" unicode="§" />
<glyph horiz-adv-x="909" d="M 537 1378 L 700 1378 L 700 1194 L 537 1194 L 537 1378 Z M 211 1378 L 377 1378 L 377 1194 L 211 1194 L 211 1378 Z" unicode="¨" />
<glyph horiz-adv-x="1458" d="M 729 -29 C 635 -29 549 -8 470 32 C 390 72 322 128 264 199 C 206 270 161 353 129 449 C 96 544 80 646 80 756 C 80 865 96 968 129 1064 C 161 1160 207 1243 265 1314 C 323 1385 391 1441 471 1482 C 550 1523 636 1544 729 1544 C 791 1544 850 1534 906 1516 C 962 1497 1014 1471 1062 1437 C 1110 1403 1153 1363 1192 1315 C 1231 1267 1264 1215 1292 1157 C 1319 1099 1340 1036 1355 969 C 1370 902 1378 832 1378 760 C 1378 687 1370 617 1355 549 C 1340 481 1319 418 1291 360 C 1263 302 1230 249 1191 201 C 1152 153 1109 112 1061 78 C 1013 44 961 17 905 -1 C 849 -19 790 -29 729 -29 Z M 729 61 C 808 61 881 79 949 115 C 1016 151 1074 201 1123 264 C 1172 326 1210 400 1238 485 C 1266 569 1280 660 1280 756 C 1280 820 1273 882 1261 942 C 1248 1001 1230 1057 1207 1109 C 1183 1161 1155 1208 1122 1250 C 1089 1292 1052 1329 1012 1359 C 971 1389 927 1412 879 1429 C 831 1445 781 1454 729 1454 C 676 1454 626 1445 578 1429 C 530 1413 485 1390 445 1360 C 404 1330 367 1293 334 1251 C 301 1209 273 1162 250 1111 C 227 1059 209 1004 197 945 C 184 885 178 824 178 760 C 178 695 184 633 197 573 C 209 513 227 458 251 406 C 274 354 302 307 335 265 C 368 223 405 186 446 156 C 486 126 530 102 578 86 C 626 69 676 61 729 61 Z M 731 317 C 683 317 641 326 604 346 C 566 366 534 395 508 433 C 481 471 461 518 447 574 C 433 630 426 694 426 768 C 426 838 433 901 447 956 C 461 1011 482 1058 508 1096 C 534 1134 566 1162 604 1182 C 642 1202 684 1212 731 1212 C 771 1212 806 1205 836 1191 C 866 1177 893 1158 915 1134 C 937 1109 955 1079 970 1045 C 984 1010 996 972 1006 930 L 891 909 C 877 969 859 1016 835 1050 C 811 1083 777 1100 731 1100 C 701 1100 674 1092 652 1076 C 629 1060 610 1037 595 1008 C 579 979 568 944 560 904 C 552 863 549 818 549 768 C 549 716 552 669 560 627 C 568 585 579 550 595 521 C 611 492 630 470 653 455 C 676 439 703 432 733 432 C 777 432 811 448 837 482 C 863 515 883 566 899 635 L 1012 612 C 1002 566 990 525 974 489 C 958 453 939 422 916 397 C 893 371 866 352 836 338 C 805 324 770 317 731 317 Z" unicode="©" />
<glyph horiz-adv-x="754" d="M 272 743 C 213 743 167 759 134 793 C 100 827 84 875 84 938 C 84 976 92 1012 108 1045 C 124 1078 150 1108 184 1136 C 218 1163 262 1187 316 1209 C 370 1230 434 1248 508 1264 L 508 1309 C 508 1392 472 1434 401 1434 C 378 1434 356 1431 336 1425 C 316 1419 296 1412 278 1402 C 259 1392 241 1380 225 1367 C 208 1354 192 1341 178 1327 L 102 1403 C 146 1447 193 1481 245 1505 C 296 1529 353 1542 416 1542 C 492 1542 547 1522 581 1482 C 615 1442 633 1385 633 1309 L 633 948 C 633 904 634 866 637 836 C 639 806 645 779 655 756 L 524 756 C 520 772 516 787 513 802 C 509 816 508 833 508 852 C 474 818 438 791 400 772 C 361 752 318 743 272 743 Z M 309 850 C 349 850 385 859 419 879 C 453 898 482 922 508 950 L 508 1176 C 450 1163 403 1148 365 1132 C 327 1116 296 1098 273 1079 C 250 1060 234 1040 225 1019 C 215 997 211 976 211 954 C 211 918 219 891 237 875 C 254 858 278 850 309 850 Z" unicode="ª" />
<glyph horiz-adv-x="932" d="M 436 541 L 690 1079 L 852 1079 L 604 541 L 852 0 L 690 0 L 436 541 Z M 68 541 L 322 1079 L 483 1079 L 238 541 L 483 0 L 322 0 L 68 541 Z" unicode="«" />
<glyph horiz-adv-x="1536" d="M 1116 352 L 1116 728 L 212 728 L 212 920 L 1296 920 L 1296 352 L 1116 352 Z" unicode="¬" />
<glyph horiz-adv-x="631" d="M 106 711 L 526 711 L 526 571 L 106 571 L 106 711 Z" unicode="­" />
<glyph horiz-adv-x="928" d="M 465 596 C 409 596 357 608 309 633 C 261 657 220 691 185 734 C 150 777 123 827 103 885 C 83 943 74 1005 74 1071 C 74 1136 83 1197 103 1255 C 123 1313 150 1363 185 1406 C 220 1448 261 1482 309 1507 C 357 1531 409 1544 465 1544 C 521 1544 572 1531 620 1507 C 668 1482 709 1448 744 1406 C 779 1364 806 1314 826 1256 C 846 1198 856 1137 856 1071 C 856 1005 846 943 826 885 C 806 827 779 777 744 734 C 709 691 668 657 620 633 C 572 608 521 596 465 596 Z M 465 653 C 511 653 555 664 595 686 C 635 708 670 737 699 775 C 728 813 751 857 768 908 C 784 958 793 1013 793 1071 C 793 1128 784 1182 768 1232 C 751 1282 728 1326 699 1364 C 669 1402 635 1432 595 1454 C 555 1476 511 1487 465 1487 C 417 1487 374 1476 334 1454 C 294 1432 259 1403 230 1366 C 200 1328 177 1284 161 1234 C 145 1183 137 1129 137 1071 C 137 1013 145 959 161 909 C 177 858 200 814 230 776 C 259 738 294 708 334 686 C 374 664 417 653 465 653 Z M 315 1333 L 465 1333 C 515 1333 554 1320 582 1296 C 610 1271 625 1234 625 1184 C 625 1142 616 1111 599 1089 C 582 1067 562 1051 539 1042 L 633 823 L 551 823 L 457 1032 L 391 1032 L 391 823 L 315 823 L 315 1333 Z M 461 1100 C 489 1100 511 1106 525 1118 C 539 1130 547 1152 547 1182 C 547 1212 539 1232 525 1244 C 511 1256 489 1262 461 1262 L 391 1262 L 391 1100 L 461 1100 Z" unicode="®" />
<glyph horiz-adv-x="909" d="M 217 1329 L 692 1329 L 692 1194 L 217 1194 L 217 1329 Z" unicode="¯" />
<glyph horiz-adv-x="705" d="M 354 967 C 316 967 281 974 249 988 C 217 1002 190 1022 168 1048 C 145 1073 127 1103 115 1139 C 102 1174 96 1213 96 1255 C 96 1296 102 1334 115 1369 C 127 1404 145 1434 168 1460 C 190 1486 217 1506 249 1520 C 281 1534 316 1542 354 1542 C 391 1542 425 1535 456 1521 C 487 1507 514 1487 536 1461 C 558 1435 575 1405 587 1370 C 599 1335 606 1297 606 1255 C 606 1213 599 1175 587 1140 C 575 1105 558 1075 536 1049 C 514 1023 487 1003 456 989 C 425 974 391 967 354 967 Z M 354 1067 C 374 1067 393 1071 410 1080 C 427 1089 442 1102 454 1119 C 466 1135 475 1155 482 1178 C 488 1201 492 1227 492 1255 C 492 1311 479 1357 454 1391 C 429 1425 396 1442 354 1442 C 310 1442 275 1425 250 1391 C 225 1357 213 1311 213 1255 C 213 1199 225 1153 250 1119 C 275 1084 310 1067 354 1067 Z" unicode="°" />
<glyph horiz-adv-x="1102" d="M 100 252 L 479 252 L 479 657 L 100 657 L 100 795 L 479 795 L 479 1217 L 623 1217 L 623 795 L 1001 795 L 1001 657 L 623 657 L 623 252 L 1001 252 L 1001 117 L 100 117 L 100 252 Z" unicode="±" />
<glyph horiz-adv-x="698" d="M 84 670 C 84 730 93 781 113 824 C 132 866 156 904 186 937 C 215 969 246 998 280 1024 C 314 1050 345 1075 375 1101 C 404 1127 428 1154 448 1184 C 467 1213 477 1248 477 1288 C 477 1329 467 1361 449 1384 C 430 1407 401 1419 362 1419 C 327 1419 297 1405 273 1379 C 248 1353 226 1315 207 1266 L 90 1315 C 118 1389 155 1444 199 1482 C 243 1519 299 1538 367 1538 C 445 1538 506 1516 548 1473 C 590 1430 612 1369 612 1290 C 612 1244 603 1205 585 1171 C 567 1137 545 1105 518 1077 C 491 1049 462 1023 430 999 C 398 975 369 950 341 925 C 313 900 290 874 270 846 C 250 818 238 787 236 752 L 612 752 L 612 629 L 84 629 L 84 670 Z" unicode="²" />
<glyph horiz-adv-x="719" d="M 354 616 C 281 616 221 635 174 673 C 127 711 90 764 63 834 L 174 885 C 186 857 198 833 211 814 C 223 794 237 779 251 767 C 265 755 281 747 298 742 C 314 737 332 735 352 735 C 399 735 435 749 461 777 C 487 805 500 841 500 885 C 500 941 484 984 453 1012 C 421 1040 369 1055 297 1055 L 254 1055 L 254 1151 L 315 1151 C 374 1151 417 1163 443 1189 C 469 1215 483 1250 483 1296 C 483 1312 480 1328 476 1343 C 472 1358 465 1371 455 1383 C 445 1394 433 1403 418 1409 C 402 1415 384 1419 362 1419 C 327 1419 296 1409 270 1391 C 244 1373 217 1347 190 1315 L 96 1382 C 168 1487 260 1540 373 1540 C 414 1540 450 1534 480 1522 C 510 1510 535 1493 555 1472 C 575 1451 589 1427 599 1399 C 609 1371 614 1342 614 1311 C 614 1262 603 1221 581 1188 C 559 1154 529 1128 489 1110 C 537 1089 572 1060 596 1024 C 619 987 631 940 631 883 C 631 843 624 807 611 774 C 598 741 579 713 555 690 C 531 666 502 648 468 635 C 434 622 396 616 354 616 Z" unicode="³" />
<glyph horiz-adv-x="909" d="M 539 1516 L 731 1516 L 483 1196 L 373 1196 L 539 1516 Z" unicode="´" />
<glyph horiz-adv-x="1032" d="M 125 1081 L 293 1081 L 293 311 C 293 247 304 199 328 167 C 351 135 391 119 449 119 C 499 119 548 133 594 161 C 640 189 687 226 733 272 L 733 1081 L 901 1081 L 901 0 L 733 0 L 733 154 C 713 134 692 114 670 95 C 647 75 623 58 597 42 C 571 26 543 13 515 3 C 486 -6 456 -12 424 -14 C 396 -15 370 -12 348 -6 C 326 0 307 12 293 29 L 293 -410 L 125 -410 L 125 1081 Z" unicode="µ" />
<glyph horiz-adv-x="1106" d="M 510 688 C 378 690 276 726 204 795 C 132 863 96 964 96 1098 C 96 1157 104 1212 122 1263 C 139 1314 164 1358 198 1396 C 231 1433 272 1462 321 1484 C 369 1505 425 1516 487 1516 L 958 1516 L 958 -410 L 817 -410 L 817 1374 L 651 1374 L 651 -410 L 510 -410 L 510 688 Z" unicode="¶" />
<glyph horiz-adv-x="545" d="M 168 741 L 377 741 L 377 526 L 168 526 L 168 741 Z" unicode="·" />
<glyph horiz-adv-x="909" d="M 461 -416 C 417 -416 374 -409 334 -396 C 294 -382 258 -364 227 -342 L 276 -264 C 302 -282 330 -297 362 -308 C 393 -318 425 -324 459 -324 C 500 -324 531 -316 551 -300 C 571 -284 582 -261 582 -231 C 582 -186 558 -164 510 -164 C 491 -164 474 -167 460 -175 C 445 -182 432 -191 420 -203 L 356 -174 L 408 12 L 500 12 L 467 -111 C 479 -101 494 -94 510 -88 C 526 -82 544 -80 565 -80 C 581 -80 598 -82 614 -88 C 630 -94 645 -102 658 -114 C 670 -125 680 -139 688 -157 C 696 -175 700 -196 700 -221 C 700 -252 693 -280 681 -304 C 668 -328 651 -349 629 -365 C 607 -381 581 -394 552 -403 C 523 -411 493 -416 461 -416 Z" unicode="¸" />
<glyph horiz-adv-x="592" d="M 111 741 L 248 741 L 248 1366 C 230 1358 210 1351 187 1346 C 164 1341 139 1339 113 1339 L 113 1460 C 149 1461 179 1466 203 1475 C 227 1483 248 1497 266 1516 L 387 1516 L 387 741 L 510 741 L 510 621 L 111 621 L 111 741 Z" unicode="¹" />
<glyph horiz-adv-x="758" d="M 379 745 C 336 745 296 753 259 770 C 222 787 190 812 162 846 C 134 879 113 921 97 971 C 81 1021 74 1079 74 1145 C 74 1211 81 1268 97 1318 C 113 1368 134 1409 162 1443 C 189 1477 221 1502 258 1519 C 295 1535 335 1544 379 1544 C 421 1544 461 1535 499 1519 C 536 1502 568 1477 596 1443 C 623 1409 644 1368 660 1318 C 676 1268 684 1211 684 1145 C 684 1079 676 1021 660 971 C 644 921 623 879 596 846 C 568 812 536 787 499 770 C 461 753 421 745 379 745 Z M 379 850 C 409 850 435 857 457 871 C 479 885 498 906 512 932 C 526 958 537 989 544 1025 C 551 1061 555 1101 555 1145 C 555 1185 551 1222 545 1257 C 538 1292 527 1323 513 1349 C 499 1375 480 1396 458 1411 C 436 1426 409 1434 379 1434 C 349 1434 323 1426 301 1412 C 279 1398 260 1378 246 1353 C 232 1327 221 1297 214 1262 C 206 1226 203 1187 203 1145 C 203 1104 206 1066 213 1030 C 219 994 230 963 244 937 C 258 910 276 889 298 873 C 320 857 347 850 379 850 Z" unicode="º" />
<glyph horiz-adv-x="932" d="M 696 541 L 451 1079 L 612 1079 L 862 541 L 612 0 L 451 0 L 696 541 Z M 330 541 L 80 1079 L 244 1079 L 496 541 L 244 0 L 80 0 L 330 541 Z" unicode="»" />
<glyph horiz-adv-x="1444" d="M 80 743 L 217 743 L 217 1364 C 199 1356 179 1349 156 1344 C 133 1339 108 1337 82 1337 L 82 1460 C 118 1461 148 1466 173 1475 C 197 1483 218 1497 236 1516 L 356 1516 L 356 743 L 479 743 L 479 621 L 80 621 L 80 743 Z M 1157 211 L 813 211 L 813 301 L 1151 897 L 1290 897 L 1290 328 L 1409 328 L 1409 211 L 1290 211 L 1290 0 L 1157 0 L 1157 211 Z M 1075 1516 L 1219 1516 L 449 0 L 305 0 L 1075 1516 Z M 1163 324 L 1163 709 L 948 324 L 1163 324 Z" unicode="¼" />
<glyph horiz-adv-x="1524" d="M 938 41 C 938 85 943 125 955 161 C 966 196 981 228 999 256 C 1017 284 1038 309 1062 332 C 1086 354 1110 376 1135 396 C 1160 416 1184 435 1208 454 C 1232 472 1253 492 1271 513 C 1289 534 1304 557 1316 581 C 1327 605 1333 632 1333 662 C 1333 702 1323 734 1304 758 C 1285 781 1257 793 1219 793 C 1183 793 1152 779 1128 753 C 1103 726 1081 688 1063 639 L 944 688 C 1001 836 1094 911 1223 911 C 1301 911 1361 889 1404 846 C 1446 802 1468 742 1468 664 C 1468 618 1459 578 1441 544 C 1423 509 1401 477 1374 449 C 1347 421 1318 395 1286 371 C 1254 347 1224 322 1196 297 C 1168 272 1145 246 1125 218 C 1105 190 1094 158 1092 123 L 1468 123 L 1468 0 L 938 0 L 938 41 Z M 80 743 L 217 743 L 217 1364 C 199 1356 179 1349 156 1344 C 133 1339 108 1337 82 1337 L 82 1460 C 118 1461 148 1466 173 1475 C 197 1483 218 1497 236 1516 L 356 1516 L 356 743 L 479 743 L 479 621 L 80 621 L 80 743 Z M 1075 1516 L 1219 1516 L 449 0 L 305 0 L 1075 1516 Z" unicode="½" />
<glyph horiz-adv-x="1475" d="M 322 614 C 250 614 190 633 143 672 C 96 710 59 764 33 834 L 141 883 C 153 855 165 831 178 812 C 191 793 205 778 220 766 C 234 754 250 746 267 742 C 283 737 301 735 319 735 C 365 735 400 748 426 776 C 452 803 465 839 465 883 C 465 939 449 981 419 1010 C 388 1038 336 1053 264 1053 L 221 1053 L 221 1149 L 283 1149 C 342 1149 384 1161 410 1187 C 436 1213 449 1248 449 1294 C 449 1310 446 1326 442 1341 C 438 1356 431 1369 421 1381 C 411 1392 399 1401 384 1407 C 369 1413 351 1417 330 1417 C 296 1417 266 1407 239 1388 C 211 1369 185 1343 160 1309 L 63 1376 C 100 1428 141 1468 186 1496 C 231 1524 282 1538 338 1538 C 380 1538 416 1532 447 1520 C 477 1508 503 1491 523 1470 C 543 1449 557 1425 567 1397 C 577 1369 582 1340 582 1309 C 582 1260 570 1219 548 1186 C 526 1152 495 1126 455 1108 C 503 1087 538 1058 562 1022 C 586 985 598 938 598 881 C 598 841 591 805 578 772 C 565 739 547 711 523 688 C 499 664 470 646 436 633 C 402 620 364 614 322 614 Z M 1190 211 L 844 211 L 844 301 L 1182 897 L 1321 897 L 1321 328 L 1440 328 L 1440 211 L 1321 211 L 1321 0 L 1190 0 L 1190 211 Z M 1106 1516 L 1249 1516 L 481 0 L 338 0 L 1106 1516 Z M 1194 324 L 1194 709 L 979 324 L 1194 324 Z" unicode="¾" />
<glyph horiz-adv-x="954" d="M 422 1516 L 621 1516 L 621 1309 L 422 1309 L 422 1516 Z M 463 -29 C 401 -29 347 -20 300 -2 C 252 16 212 40 180 72 C 148 104 123 141 107 184 C 90 227 82 274 82 324 C 82 372 87 415 99 451 C 110 487 125 519 144 548 C 163 576 185 602 210 626 C 234 649 260 672 287 696 C 321 726 348 754 370 780 C 391 805 408 832 420 861 C 432 890 440 923 444 961 C 448 998 451 1044 451 1100 L 592 1100 C 593 1080 594 1060 594 1039 C 594 1018 594 997 594 977 C 594 933 589 895 580 862 C 571 828 559 798 543 771 C 527 743 508 718 486 694 C 464 670 440 647 414 625 C 387 603 363 581 343 561 C 322 541 305 519 291 497 C 277 475 266 451 259 425 C 251 399 248 369 248 336 C 248 303 252 273 262 247 C 272 220 286 197 305 178 C 324 159 347 144 375 134 C 403 124 435 119 471 119 C 503 119 532 124 559 135 C 586 146 611 161 634 180 C 657 199 678 222 698 248 C 717 274 734 302 750 332 L 887 268 C 865 224 841 184 814 148 C 786 112 755 80 720 54 C 685 28 646 7 604 -7 C 561 -21 514 -29 463 -29 Z" unicode="¿" />
<glyph horiz-adv-x="1155" d="M 215 0 L 53 0 L 498 1522 L 657 1522 L 1102 0 L 930 0 L 809 436 L 336 436 L 215 0 Z M 702 817 C 689 861 677 904 666 945 C 654 986 643 1026 633 1064 C 623 1102 613 1139 603 1175 C 593 1211 584 1248 575 1284 L 571 1284 C 561 1247 552 1210 543 1174 C 533 1138 523 1101 513 1063 C 503 1025 492 987 480 947 C 468 907 456 865 444 821 L 379 586 L 768 586 L 702 817 Z M 284 1930 L 477 1930 L 641 1610 L 530 1610 L 284 1930 Z" unicode="À" />
<glyph horiz-adv-x="1155" d="M 215 0 L 53 0 L 498 1522 L 657 1522 L 1102 0 L 930 0 L 809 436 L 336 436 L 215 0 Z M 702 817 C 689 861 677 904 666 945 C 654 986 643 1026 633 1064 C 623 1102 613 1139 603 1175 C 593 1211 584 1248 575 1284 L 571 1284 C 561 1247 552 1210 543 1174 C 533 1138 523 1101 513 1063 C 503 1025 492 987 480 947 C 468 907 456 865 444 821 L 379 586 L 768 586 L 702 817 Z M 676 1930 L 868 1930 L 620 1610 L 510 1610 L 676 1930 Z" unicode="Á" />
<glyph horiz-adv-x="1155" d="M 215 0 L 53 0 L 498 1522 L 657 1522 L 1102 0 L 930 0 L 809 436 L 336 436 L 215 0 Z M 702 817 C 689 861 677 904 666 945 C 654 986 643 1026 633 1064 C 623 1102 613 1139 603 1175 C 593 1211 584 1248 575 1284 L 571 1284 C 561 1247 552 1210 543 1174 C 533 1138 523 1101 513 1063 C 503 1025 492 987 480 947 C 468 907 456 865 444 821 L 379 586 L 768 586 L 702 817 Z M 520 1915 L 635 1915 L 860 1589 L 758 1589 L 578 1771 L 395 1589 L 295 1589 L 520 1915 Z" unicode="Â" />
<glyph horiz-adv-x="1155" d="M 215 0 L 53 0 L 498 1522 L 657 1522 L 1102 0 L 930 0 L 809 436 L 336 436 L 215 0 Z M 702 817 C 689 861 677 904 666 945 C 654 986 643 1026 633 1064 C 623 1102 613 1139 603 1175 C 593 1211 584 1248 575 1284 L 571 1284 C 561 1247 552 1210 543 1174 C 533 1138 523 1101 513 1063 C 503 1025 492 987 480 947 C 468 907 456 865 444 821 L 379 586 L 768 586 L 702 817 Z M 713 1600 C 685 1600 658 1606 634 1618 C 610 1630 587 1643 566 1657 C 544 1671 524 1684 505 1696 C 485 1708 467 1714 449 1714 C 423 1714 405 1705 394 1689 C 382 1672 377 1644 377 1604 L 277 1604 C 277 1687 291 1748 320 1787 C 348 1826 390 1846 445 1846 C 472 1846 498 1840 522 1828 C 546 1816 569 1802 591 1788 C 613 1774 633 1761 653 1749 C 673 1737 692 1731 711 1731 C 734 1731 751 1738 763 1754 C 774 1770 780 1799 780 1841 L 879 1841 C 879 1757 864 1695 836 1657 C 807 1619 766 1600 713 1600 Z" unicode="Ã" />
<glyph horiz-adv-x="1155" d="M 215 0 L 53 0 L 498 1522 L 657 1522 L 1102 0 L 930 0 L 809 436 L 336 436 L 215 0 Z M 702 817 C 689 861 677 904 666 945 C 654 986 643 1026 633 1064 C 623 1102 613 1139 603 1175 C 593 1211 584 1248 575 1284 L 571 1284 C 561 1247 552 1210 543 1174 C 533 1138 523 1101 513 1063 C 503 1025 492 987 480 947 C 468 907 456 865 444 821 L 379 586 L 768 586 L 702 817 Z M 660 1792 L 823 1792 L 823 1608 L 660 1608 L 660 1792 Z M 334 1792 L 500 1792 L 500 1608 L 334 1608 L 334 1792 Z" unicode="Ä" />
<glyph horiz-adv-x="1155" d="M 215 0 L 53 0 L 498 1522 L 657 1522 L 1102 0 L 930 0 L 809 436 L 336 436 L 215 0 Z M 702 817 C 689 861 677 904 666 945 C 654 986 643 1026 633 1064 C 623 1102 613 1139 603 1175 C 593 1211 584 1248 575 1284 L 571 1284 C 561 1247 552 1210 543 1174 C 533 1138 523 1101 513 1063 C 503 1025 492 987 480 947 C 468 907 456 865 444 821 L 379 586 L 768 586 L 702 817 Z M 578 1448 C 551 1448 527 1453 505 1463 C 483 1473 465 1486 450 1504 C 435 1521 424 1542 416 1566 C 408 1590 404 1616 404 1644 C 404 1672 408 1698 416 1722 C 424 1746 435 1766 450 1784 C 465 1801 483 1814 505 1824 C 527 1834 551 1839 578 1839 C 604 1839 627 1834 649 1824 C 670 1814 688 1801 704 1784 C 719 1766 731 1746 739 1722 C 747 1698 752 1672 752 1644 C 752 1616 747 1590 739 1566 C 731 1542 719 1521 704 1504 C 688 1486 670 1473 649 1463 C 627 1453 604 1448 578 1448 Z M 578 1527 C 592 1527 604 1530 615 1536 C 625 1542 634 1551 642 1562 C 649 1572 654 1585 658 1599 C 662 1613 664 1628 664 1644 C 664 1659 662 1673 658 1687 C 654 1701 649 1713 642 1723 C 634 1733 625 1742 615 1748 C 604 1754 592 1757 578 1757 C 550 1757 528 1746 514 1724 C 499 1702 492 1675 492 1644 C 492 1628 493 1613 497 1599 C 501 1585 506 1572 514 1562 C 521 1551 530 1542 541 1536 C 551 1530 564 1527 578 1527 Z" unicode="Å" />
<glyph horiz-adv-x="1708" d="M 739 1516 L 1597 1516 L 1597 1358 L 995 1358 L 995 877 L 1436 877 L 1436 723 L 995 723 L 995 156 L 1632 156 L 1632 0 L 825 0 L 825 469 L 424 469 L 211 0 L 43 0 L 739 1516 Z M 825 616 L 825 1352 L 487 616 L 825 616 Z" unicode="Æ" />
<glyph horiz-adv-x="1200" d="M 633 -27 C 549 -27 474 -10 408 23 C 342 56 285 106 239 172 C 192 238 156 321 131 419 C 106 517 94 632 94 762 C 94 888 106 1000 132 1098 C 158 1195 194 1277 242 1343 C 289 1409 346 1459 413 1493 C 479 1527 553 1544 635 1544 C 705 1544 767 1532 820 1508 C 872 1484 917 1451 955 1409 C 993 1367 1024 1316 1048 1258 C 1072 1199 1090 1135 1104 1065 L 944 1036 C 932 1093 917 1143 900 1187 C 883 1231 862 1267 837 1297 C 812 1326 783 1348 749 1363 C 715 1378 675 1386 631 1386 C 572 1386 520 1371 475 1343 C 429 1315 391 1274 360 1221 C 329 1167 306 1102 290 1025 C 274 948 266 861 266 764 C 266 661 274 570 290 491 C 306 412 329 346 361 292 C 392 238 431 197 477 169 C 523 141 575 127 635 127 C 679 127 719 134 754 149 C 788 163 819 186 845 216 C 871 246 894 285 914 331 C 933 377 949 432 963 496 L 1120 469 C 1105 396 1084 329 1058 269 C 1032 208 999 156 959 112 C 919 68 873 33 819 9 C 765 -14 703 -27 633 -27 Z M 606 -416 C 562 -416 519 -409 479 -396 C 439 -382 403 -364 372 -342 L 421 -264 C 447 -282 475 -297 507 -308 C 538 -318 570 -324 604 -324 C 645 -324 676 -316 696 -300 C 716 -284 727 -261 727 -231 C 727 -186 703 -164 655 -164 C 636 -164 619 -167 605 -175 C 590 -182 577 -191 565 -203 L 501 -174 L 553 12 L 645 12 L 612 -111 C 624 -101 639 -94 655 -88 C 671 -82 689 -80 710 -80 C 726 -80 743 -82 759 -88 C 775 -94 790 -102 803 -114 C 815 -125 825 -139 833 -157 C 841 -175 845 -196 845 -221 C 845 -252 838 -280 826 -304 C 813 -328 796 -349 774 -365 C 752 -381 726 -394 697 -403 C 668 -411 638 -416 606 -416 Z" unicode="Ç" />
<glyph horiz-adv-x="1040" d="M 156 1516 L 930 1516 L 930 1358 L 328 1358 L 328 879 L 768 879 L 768 723 L 328 723 L 328 156 L 965 156 L 965 0 L 156 0 L 156 1516 Z M 276 1930 L 469 1930 L 633 1610 L 522 1610 L 276 1930 Z" unicode="È" />
<glyph horiz-adv-x="1040" d="M 588 1930 L 780 1930 L 532 1610 L 422 1610 L 588 1930 Z M 156 1516 L 930 1516 L 930 1358 L 328 1358 L 328 879 L 768 879 L 768 723 L 328 723 L 328 156 L 965 156 L 965 0 L 156 0 L 156 1516 Z" unicode="É" />
<glyph horiz-adv-x="1040" d="M 477 1930 L 592 1930 L 817 1604 L 715 1604 L 535 1786 L 352 1604 L 252 1604 L 477 1930 Z M 156 1516 L 930 1516 L 930 1358 L 328 1358 L 328 879 L 768 879 L 768 723 L 328 723 L 328 156 L 965 156 L 965 0 L 156 0 L 156 1516 Z" unicode="Ê" />
<glyph horiz-adv-x="1040" d="M 617 1792 L 780 1792 L 780 1608 L 617 1608 L 617 1792 Z M 291 1792 L 457 1792 L 457 1608 L 291 1608 L 291 1792 Z M 156 1516 L 930 1516 L 930 1358 L 328 1358 L 328 879 L 768 879 L 768 723 L 328 723 L 328 156 L 965 156 L 965 0 L 156 0 L 156 1516 Z" unicode="Ë" />
<glyph horiz-adv-x="508" d="M 168 1516 L 340 1516 L 340 0 L 168 0 L 168 1516 Z M -32 1930 L 161 1930 L 325 1610 L 214 1610 L -32 1930 Z" unicode="Ì" />
<glyph horiz-adv-x="508" d="M 168 1516 L 340 1516 L 340 0 L 168 0 L 168 1516 Z M 356 1930 L 548 1930 L 300 1610 L 190 1610 L 356 1930 Z" unicode="Í" />
<glyph horiz-adv-x="508" d="M 168 1516 L 340 1516 L 340 0 L 168 0 L 168 1516 Z M 197 1930 L 312 1930 L 537 1604 L 435 1604 L 255 1786 L 72 1604 L -28 1604 L 197 1930 Z" unicode="Î" />
<glyph horiz-adv-x="508" d="M 168 1516 L 340 1516 L 340 0 L 168 0 L 168 1516 Z M 337 1792 L 500 1792 L 500 1608 L 337 1608 L 337 1792 Z M 11 1792 L 177 1792 L 177 1608 L 11 1608 L 11 1792 Z" unicode="Ï" />
<glyph horiz-adv-x="1227" d="M 29 727 L 29 870 L 156 870 L 156 1516 L 489 1516 C 593 1516 686 1501 766 1472 C 846 1443 914 1398 968 1337 C 1022 1276 1063 1198 1091 1102 C 1119 1006 1133 892 1133 760 C 1133 626 1118 512 1090 416 C 1062 320 1020 242 966 180 C 911 118 844 73 764 44 C 684 14 592 0 489 0 L 156 0 L 156 727 L 29 727 Z M 592 870 L 592 727 L 324 727 L 324 154 L 512 154 C 588 154 654 165 710 189 C 766 212 813 248 850 297 C 887 346 915 409 933 485 C 951 561 961 653 961 760 C 961 864 951 953 933 1029 C 915 1104 887 1166 850 1215 C 813 1263 766 1299 710 1323 C 653 1346 586 1358 510 1358 L 324 1358 L 324 870 L 592 870 Z" unicode="Ð" />
<glyph horiz-adv-x="1284" d="M 156 1516 L 356 1516 L 831 588 C 844 562 856 538 867 517 C 878 495 889 474 899 454 C 909 433 920 412 930 390 C 940 368 952 345 965 319 L 969 319 L 969 1516 L 1126 1516 L 1126 0 L 969 0 L 461 977 C 446 1004 433 1029 422 1051 C 410 1073 399 1094 389 1116 C 378 1138 367 1160 356 1184 C 344 1207 331 1234 317 1264 L 313 1264 L 313 0 L 156 0 L 156 1516 Z M 776 1600 C 748 1600 721 1606 697 1618 C 673 1630 650 1643 629 1657 C 607 1671 587 1684 568 1696 C 548 1708 530 1714 512 1714 C 486 1714 468 1705 457 1689 C 445 1672 440 1644 440 1604 L 340 1604 C 340 1687 354 1748 383 1787 C 411 1826 453 1846 508 1846 C 535 1846 561 1840 585 1828 C 609 1816 632 1802 654 1788 C 676 1774 696 1761 716 1749 C 736 1737 755 1731 774 1731 C 797 1731 814 1738 826 1754 C 837 1770 843 1799 843 1841 L 942 1841 C 942 1757 927 1695 899 1657 C 870 1619 829 1600 776 1600 Z" unicode="Ñ" />
<glyph horiz-adv-x="1284" d="M 643 -29 C 563 -29 490 -12 423 22 C 356 56 298 106 249 173 C 200 239 162 322 135 420 C 107 518 94 630 94 758 C 94 885 107 998 135 1096 C 162 1194 200 1276 249 1342 C 298 1408 356 1459 423 1493 C 490 1527 563 1544 643 1544 C 721 1544 794 1527 861 1493 C 928 1459 986 1408 1035 1342 C 1083 1276 1121 1194 1149 1096 C 1176 998 1190 885 1190 758 C 1190 630 1176 518 1149 420 C 1121 322 1083 239 1035 173 C 986 106 928 56 861 22 C 794 -12 721 -29 643 -29 Z M 643 127 C 700 127 752 141 798 169 C 844 197 883 237 915 291 C 947 345 972 411 990 489 C 1007 567 1016 657 1016 758 C 1016 858 1007 947 990 1025 C 972 1103 947 1168 915 1222 C 883 1276 844 1316 798 1344 C 752 1372 700 1386 643 1386 C 585 1386 532 1372 486 1344 C 439 1316 399 1276 367 1222 C 334 1168 309 1103 292 1025 C 274 947 266 858 266 758 C 266 657 274 567 292 489 C 309 411 334 345 367 291 C 399 237 439 197 486 169 C 532 141 585 127 643 127 Z M 366 1930 L 559 1930 L 723 1610 L 612 1610 L 366 1930 Z" unicode="Ò" />
<glyph horiz-adv-x="1284" d="M 725 1930 L 917 1930 L 669 1610 L 559 1610 L 725 1930 Z M 643 -29 C 563 -29 490 -12 423 22 C 356 56 298 106 249 173 C 200 239 162 322 135 420 C 107 518 94 630 94 758 C 94 885 107 998 135 1096 C 162 1194 200 1276 249 1342 C 298 1408 356 1459 423 1493 C 490 1527 563 1544 643 1544 C 721 1544 794 1527 861 1493 C 928 1459 986 1408 1035 1342 C 1083 1276 1121 1194 1149 1096 C 1176 998 1190 885 1190 758 C 1190 630 1176 518 1149 420 C 1121 322 1083 239 1035 173 C 986 106 928 56 861 22 C 794 -12 721 -29 643 -29 Z M 643 127 C 700 127 752 141 798 169 C 844 197 883 237 915 291 C 947 345 972 411 990 489 C 1007 567 1016 657 1016 758 C 1016 858 1007 947 990 1025 C 972 1103 947 1168 915 1222 C 883 1276 844 1316 798 1344 C 752 1372 700 1386 643 1386 C 585 1386 532 1372 486 1344 C 439 1316 399 1276 367 1222 C 334 1168 309 1103 292 1025 C 274 947 266 858 266 758 C 266 657 274 567 292 489 C 309 411 334 345 367 291 C 399 237 439 197 486 169 C 532 141 585 127 643 127 Z" unicode="Ó" />
<glyph horiz-adv-x="1284" d="M 583 1930 L 698 1930 L 923 1604 L 821 1604 L 641 1786 L 458 1604 L 358 1604 L 583 1930 Z M 643 -29 C 563 -29 490 -12 423 22 C 356 56 298 106 249 173 C 200 239 162 322 135 420 C 107 518 94 630 94 758 C 94 885 107 998 135 1096 C 162 1194 200 1276 249 1342 C 298 1408 356 1459 423 1493 C 490 1527 563 1544 643 1544 C 721 1544 794 1527 861 1493 C 928 1459 986 1408 1035 1342 C 1083 1276 1121 1194 1149 1096 C 1176 998 1190 885 1190 758 C 1190 630 1176 518 1149 420 C 1121 322 1083 239 1035 173 C 986 106 928 56 861 22 C 794 -12 721 -29 643 -29 Z M 643 127 C 700 127 752 141 798 169 C 844 197 883 237 915 291 C 947 345 972 411 990 489 C 1007 567 1016 657 1016 758 C 1016 858 1007 947 990 1025 C 972 1103 947 1168 915 1222 C 883 1276 844 1316 798 1344 C 752 1372 700 1386 643 1386 C 585 1386 532 1372 486 1344 C 439 1316 399 1276 367 1222 C 334 1168 309 1103 292 1025 C 274 947 266 858 266 758 C 266 657 274 567 292 489 C 309 411 334 345 367 291 C 399 237 439 197 486 169 C 532 141 585 127 643 127 Z" unicode="Ô" />
<glyph horiz-adv-x="1284" d="M 643 -29 C 563 -29 490 -12 423 22 C 356 56 298 106 249 173 C 200 239 162 322 135 420 C 107 518 94 630 94 758 C 94 885 107 998 135 1096 C 162 1194 200 1276 249 1342 C 298 1408 356 1459 423 1493 C 490 1527 563 1544 643 1544 C 721 1544 794 1527 861 1493 C 928 1459 986 1408 1035 1342 C 1083 1276 1121 1194 1149 1096 C 1176 998 1190 885 1190 758 C 1190 630 1176 518 1149 420 C 1121 322 1083 239 1035 173 C 986 106 928 56 861 22 C 794 -12 721 -29 643 -29 Z M 643 127 C 700 127 752 141 798 169 C 844 197 883 237 915 291 C 947 345 972 411 990 489 C 1007 567 1016 657 1016 758 C 1016 858 1007 947 990 1025 C 972 1103 947 1168 915 1222 C 883 1276 844 1316 798 1344 C 752 1372 700 1386 643 1386 C 585 1386 532 1372 486 1344 C 439 1316 399 1276 367 1222 C 334 1168 309 1103 292 1025 C 274 947 266 858 266 758 C 266 657 274 567 292 489 C 309 411 334 345 367 291 C 399 237 439 197 486 169 C 532 141 585 127 643 127 Z M 776 1600 C 748 1600 721 1606 697 1618 C 673 1630 650 1643 629 1657 C 607 1671 587 1684 568 1696 C 548 1708 530 1714 512 1714 C 486 1714 468 1705 457 1689 C 445 1672 440 1644 440 1604 L 340 1604 C 340 1687 354 1748 383 1787 C 411 1826 453 1846 508 1846 C 535 1846 561 1840 585 1828 C 609 1816 632 1802 654 1788 C 676 1774 696 1761 716 1749 C 736 1737 755 1731 774 1731 C 797 1731 814 1738 826 1754 C 837 1770 843 1799 843 1841 L 942 1841 C 942 1757 927 1695 899 1657 C 870 1619 829 1600 776 1600 Z" unicode="Õ" />
<glyph horiz-adv-x="1284" d="M 723 1792 L 886 1792 L 886 1608 L 723 1608 L 723 1792 Z M 397 1792 L 563 1792 L 563 1608 L 397 1608 L 397 1792 Z M 643 -29 C 563 -29 490 -12 423 22 C 356 56 298 106 249 173 C 200 239 162 322 135 420 C 107 518 94 630 94 758 C 94 885 107 998 135 1096 C 162 1194 200 1276 249 1342 C 298 1408 356 1459 423 1493 C 490 1527 563 1544 643 1544 C 721 1544 794 1527 861 1493 C 928 1459 986 1408 1035 1342 C 1083 1276 1121 1194 1149 1096 C 1176 998 1190 885 1190 758 C 1190 630 1176 518 1149 420 C 1121 322 1083 239 1035 173 C 986 106 928 56 861 22 C 794 -12 721 -29 643 -29 Z M 643 127 C 700 127 752 141 798 169 C 844 197 883 237 915 291 C 947 345 972 411 990 489 C 1007 567 1016 657 1016 758 C 1016 858 1007 947 990 1025 C 972 1103 947 1168 915 1222 C 883 1276 844 1316 798 1344 C 752 1372 700 1386 643 1386 C 585 1386 532 1372 486 1344 C 439 1316 399 1276 367 1222 C 334 1168 309 1103 292 1025 C 274 947 266 858 266 758 C 266 657 274 567 292 489 C 309 411 334 345 367 291 C 399 237 439 197 486 169 C 532 141 585 127 643 127 Z" unicode="Ö" />
<glyph horiz-adv-x="1096" d="M 127 354 L 451 676 L 127 997 L 223 1094 L 547 770 L 868 1094 L 965 997 L 641 676 L 965 354 L 868 258 L 547 580 L 223 258 L 127 354 Z" unicode="×" />
<glyph horiz-adv-x="1284" d="M 1026 1354 C 1077 1287 1117 1204 1146 1105 C 1175 1005 1190 890 1190 758 C 1190 630 1176 518 1149 420 C 1121 322 1083 239 1035 173 C 986 106 928 56 861 22 C 794 -12 721 -29 643 -29 C 528 -29 428 5 344 74 L 254 -90 L 147 -29 L 256 166 C 204 232 164 314 136 413 C 108 512 94 627 94 758 C 94 885 107 998 135 1096 C 162 1194 200 1276 249 1342 C 298 1408 356 1459 423 1493 C 490 1527 563 1544 643 1544 C 699 1544 751 1535 800 1518 C 849 1501 894 1476 936 1444 L 1030 1608 L 1135 1548 L 1026 1354 Z M 862 1296 C 832 1326 798 1349 762 1365 C 726 1381 686 1389 643 1389 C 585 1389 532 1375 485 1347 C 438 1319 398 1278 366 1224 C 333 1170 308 1103 290 1025 C 272 947 264 858 264 758 C 264 666 271 583 286 511 C 300 438 321 375 348 322 L 862 1296 Z M 420 221 C 480 157 554 125 643 125 C 700 125 752 139 798 167 C 844 195 884 237 916 291 C 948 345 973 411 991 489 C 1009 567 1018 657 1018 758 C 1018 849 1010 931 996 1004 C 981 1076 960 1140 934 1194 L 420 221 Z" unicode="Ø" />
<glyph horiz-adv-x="1233" d="M 616 -27 C 532 -27 460 -14 400 10 C 340 35 292 71 254 117 C 216 163 188 218 170 282 C 152 346 143 418 143 498 L 143 1516 L 315 1516 L 315 520 C 315 456 320 400 330 351 C 340 302 358 261 382 228 C 406 194 437 169 476 151 C 514 133 562 125 618 125 C 674 125 721 133 760 151 C 798 168 830 193 854 227 C 878 261 895 302 906 350 C 916 398 922 454 922 516 L 922 1516 L 1087 1516 L 1087 502 C 1087 424 1078 353 1060 289 C 1042 224 1014 168 976 121 C 938 74 889 38 829 12 C 769 -14 698 -27 616 -27 Z M 342 1930 L 535 1930 L 699 1610 L 588 1610 L 342 1930 Z" unicode="Ù" />
<glyph horiz-adv-x="1233" d="M 701 1930 L 893 1930 L 645 1610 L 535 1610 L 701 1930 Z M 616 -27 C 532 -27 460 -14 400 10 C 340 35 292 71 254 117 C 216 163 188 218 170 282 C 152 346 143 418 143 498 L 143 1516 L 315 1516 L 315 520 C 315 456 320 400 330 351 C 340 302 358 261 382 228 C 406 194 437 169 476 151 C 514 133 562 125 618 125 C 674 125 721 133 760 151 C 798 168 830 193 854 227 C 878 261 895 302 906 350 C 916 398 922 454 922 516 L 922 1516 L 1087 1516 L 1087 502 C 1087 424 1078 353 1060 289 C 1042 224 1014 168 976 121 C 938 74 889 38 829 12 C 769 -14 698 -27 616 -27 Z" unicode="Ú" />
<glyph horiz-adv-x="1233" d="M 559 1930 L 674 1930 L 899 1604 L 797 1604 L 617 1786 L 434 1604 L 334 1604 L 559 1930 Z M 616 -27 C 532 -27 460 -14 400 10 C 340 35 292 71 254 117 C 216 163 188 218 170 282 C 152 346 143 418 143 498 L 143 1516 L 315 1516 L 315 520 C 315 456 320 400 330 351 C 340 302 358 261 382 228 C 406 194 437 169 476 151 C 514 133 562 125 618 125 C 674 125 721 133 760 151 C 798 168 830 193 854 227 C 878 261 895 302 906 350 C 916 398 922 454 922 516 L 922 1516 L 1087 1516 L 1087 502 C 1087 424 1078 353 1060 289 C 1042 224 1014 168 976 121 C 938 74 889 38 829 12 C 769 -14 698 -27 616 -27 Z" unicode="Û" />
<glyph horiz-adv-x="1233" d="M 699 1792 L 862 1792 L 862 1608 L 699 1608 L 699 1792 Z M 373 1792 L 539 1792 L 539 1608 L 373 1608 L 373 1792 Z M 616 -27 C 532 -27 460 -14 400 10 C 340 35 292 71 254 117 C 216 163 188 218 170 282 C 152 346 143 418 143 498 L 143 1516 L 315 1516 L 315 520 C 315 456 320 400 330 351 C 340 302 358 261 382 228 C 406 194 437 169 476 151 C 514 133 562 125 618 125 C 674 125 721 133 760 151 C 798 168 830 193 854 227 C 878 261 895 302 906 350 C 916 398 922 454 922 516 L 922 1516 L 1087 1516 L 1087 502 C 1087 424 1078 353 1060 289 C 1042 224 1014 168 976 121 C 938 74 889 38 829 12 C 769 -14 698 -27 616 -27 Z" unicode="Ü" />
<glyph horiz-adv-x="1077" d="M 453 625 L 33 1516 L 209 1516 L 541 782 L 545 782 L 877 1516 L 1042 1516 L 625 629 L 625 0 L 453 0 L 453 625 Z M 623 1930 L 815 1930 L 567 1610 L 457 1610 L 623 1930 Z" unicode="Ý" />
<glyph horiz-adv-x="1133" d="M 156 1516 L 326 1516 L 326 1241 L 580 1241 C 648 1241 711 1232 769 1216 C 826 1199 875 1173 917 1138 C 958 1103 990 1058 1013 1003 C 1035 948 1047 883 1047 807 C 1047 723 1034 652 1010 595 C 985 537 951 491 908 456 C 865 421 814 396 756 381 C 698 365 635 358 569 358 L 326 358 L 326 0 L 156 0 L 156 1516 Z M 575 510 C 625 510 669 515 707 526 C 745 536 777 553 803 577 C 829 601 848 631 861 668 C 874 705 881 750 881 803 C 881 853 874 895 861 931 C 848 967 829 996 803 1018 C 777 1040 745 1057 707 1067 C 669 1077 624 1083 573 1083 L 326 1083 L 326 510 L 575 510 Z" unicode="Þ" />
<glyph horiz-adv-x="1083" d="M 647 -20 C 586 -20 535 -13 494 0 C 452 14 417 32 389 55 L 467 172 C 490 153 515 138 543 128 C 570 118 603 113 641 113 C 671 113 698 119 724 131 C 749 143 771 162 790 187 C 808 212 823 244 834 283 C 844 321 850 367 850 420 C 850 480 842 532 826 575 C 810 618 787 653 755 681 C 723 708 684 728 636 742 C 588 756 531 764 467 768 L 467 899 C 514 899 555 906 590 918 C 624 930 653 947 675 969 C 697 991 714 1017 725 1047 C 735 1077 741 1110 741 1147 C 741 1219 722 1274 684 1313 C 646 1352 592 1372 522 1372 C 448 1372 391 1347 353 1299 C 314 1250 295 1178 295 1083 L 295 0 L 129 0 L 129 1077 C 129 1147 138 1209 157 1264 C 175 1318 202 1364 236 1402 C 270 1439 312 1467 361 1487 C 409 1506 464 1516 524 1516 C 582 1516 635 1508 681 1493 C 727 1477 767 1455 799 1425 C 831 1395 856 1358 873 1314 C 890 1270 899 1219 899 1163 C 899 1123 893 1086 883 1052 C 872 1018 857 987 838 959 C 818 931 795 908 768 888 C 741 868 711 854 678 844 C 725 835 769 820 810 799 C 850 778 886 751 916 717 C 946 683 969 641 986 593 C 1003 545 1012 489 1012 426 C 1012 360 1004 299 988 245 C 972 190 949 143 919 104 C 888 64 850 34 804 12 C 758 -9 706 -20 647 -20 Z" unicode="ß" />
<glyph horiz-adv-x="965" d="M 332 -14 C 250 -14 187 9 142 57 C 96 104 74 170 74 256 C 74 310 85 360 109 406 C 132 452 168 495 217 533 C 266 571 329 606 405 636 C 481 666 572 691 678 713 L 678 778 C 678 840 664 885 638 914 C 611 943 570 958 516 958 C 483 958 452 954 422 946 C 392 938 364 928 338 915 C 311 902 286 887 263 869 C 239 851 217 833 197 813 L 104 913 C 160 969 224 1015 296 1051 C 367 1086 446 1104 532 1104 C 637 1104 715 1075 765 1019 C 815 963 840 882 840 778 L 840 266 C 840 200 841 146 845 104 C 849 62 856 28 866 0 L 700 0 C 694 21 688 42 684 62 C 680 82 678 108 678 139 C 634 91 582 53 524 26 C 466 0 402 -14 332 -14 Z M 387 121 C 443 121 496 134 546 160 C 596 186 640 220 678 262 L 678 594 C 594 576 524 555 468 532 C 411 509 365 484 331 458 C 297 431 272 402 258 372 C 243 342 236 311 236 279 C 236 224 249 184 276 159 C 302 133 339 121 387 121 Z M 237 1516 L 430 1516 L 594 1196 L 483 1196 L 237 1516 Z" unicode="à" />
<glyph horiz-adv-x="965" d="M 332 -14 C 250 -14 187 9 142 57 C 96 104 74 170 74 256 C 74 310 85 360 109 406 C 132 452 168 495 217 533 C 266 571 329 606 405 636 C 481 666 572 691 678 713 L 678 778 C 678 840 664 885 638 914 C 611 943 570 958 516 958 C 483 958 452 954 422 946 C 392 938 364 928 338 915 C 311 902 286 887 263 869 C 239 851 217 833 197 813 L 104 913 C 160 969 224 1015 296 1051 C 367 1086 446 1104 532 1104 C 637 1104 715 1075 765 1019 C 815 963 840 882 840 778 L 840 266 C 840 200 841 146 845 104 C 849 62 856 28 866 0 L 700 0 C 694 21 688 42 684 62 C 680 82 678 108 678 139 C 634 91 582 53 524 26 C 466 0 402 -14 332 -14 Z M 387 121 C 443 121 496 134 546 160 C 596 186 640 220 678 262 L 678 594 C 594 576 524 555 468 532 C 411 509 365 484 331 458 C 297 431 272 402 258 372 C 243 342 236 311 236 279 C 236 224 249 184 276 159 C 302 133 339 121 387 121 Z M 536 1516 L 728 1516 L 480 1196 L 370 1196 L 536 1516 Z" unicode="á" />
<glyph horiz-adv-x="965" d="M 332 -14 C 250 -14 187 9 142 57 C 96 104 74 170 74 256 C 74 310 85 360 109 406 C 132 452 168 495 217 533 C 266 571 329 606 405 636 C 481 666 572 691 678 713 L 678 778 C 678 840 664 885 638 914 C 611 943 570 958 516 958 C 483 958 452 954 422 946 C 392 938 364 928 338 915 C 311 902 286 887 263 869 C 239 851 217 833 197 813 L 104 913 C 160 969 224 1015 296 1051 C 367 1086 446 1104 532 1104 C 637 1104 715 1075 765 1019 C 815 963 840 882 840 778 L 840 266 C 840 200 841 146 845 104 C 849 62 856 28 866 0 L 700 0 C 694 21 688 42 684 62 C 680 82 678 108 678 139 C 634 91 582 53 524 26 C 466 0 402 -14 332 -14 Z M 387 121 C 443 121 496 134 546 160 C 596 186 640 220 678 262 L 678 594 C 594 576 524 555 468 532 C 411 509 365 484 331 458 C 297 431 272 402 258 372 C 243 342 236 311 236 279 C 236 224 249 184 276 159 C 302 133 339 121 387 121 Z M 424 1516 L 539 1516 L 764 1190 L 662 1190 L 482 1372 L 299 1190 L 199 1190 L 424 1516 Z" unicode="â" />
<glyph horiz-adv-x="965" d="M 332 -14 C 250 -14 187 9 142 57 C 96 104 74 170 74 256 C 74 310 85 360 109 406 C 132 452 168 495 217 533 C 266 571 329 606 405 636 C 481 666 572 691 678 713 L 678 778 C 678 840 664 885 638 914 C 611 943 570 958 516 958 C 483 958 452 954 422 946 C 392 938 364 928 338 915 C 311 902 286 887 263 869 C 239 851 217 833 197 813 L 104 913 C 160 969 224 1015 296 1051 C 367 1086 446 1104 532 1104 C 637 1104 715 1075 765 1019 C 815 963 840 882 840 778 L 840 266 C 840 200 841 146 845 104 C 849 62 856 28 866 0 L 700 0 C 694 21 688 42 684 62 C 680 82 678 108 678 139 C 634 91 582 53 524 26 C 466 0 402 -14 332 -14 Z M 387 121 C 443 121 496 134 546 160 C 596 186 640 220 678 262 L 678 594 C 594 576 524 555 468 532 C 411 509 365 484 331 458 C 297 431 272 402 258 372 C 243 342 236 311 236 279 C 236 224 249 184 276 159 C 302 133 339 121 387 121 Z M 617 1186 C 589 1186 562 1192 538 1204 C 514 1216 491 1229 470 1243 C 448 1257 428 1270 409 1282 C 389 1294 371 1300 353 1300 C 327 1300 309 1291 298 1275 C 286 1258 281 1230 281 1190 L 181 1190 C 181 1273 195 1334 224 1373 C 252 1412 294 1432 349 1432 C 376 1432 402 1426 426 1414 C 450 1402 473 1388 495 1374 C 517 1360 537 1347 557 1335 C 577 1323 596 1317 615 1317 C 638 1317 655 1324 667 1340 C 678 1356 684 1385 684 1427 L 783 1427 C 783 1343 768 1281 740 1243 C 711 1205 670 1186 617 1186 Z" unicode="ã" />
<glyph horiz-adv-x="965" d="M 332 -14 C 250 -14 187 9 142 57 C 96 104 74 170 74 256 C 74 310 85 360 109 406 C 132 452 168 495 217 533 C 266 571 329 606 405 636 C 481 666 572 691 678 713 L 678 778 C 678 840 664 885 638 914 C 611 943 570 958 516 958 C 483 958 452 954 422 946 C 392 938 364 928 338 915 C 311 902 286 887 263 869 C 239 851 217 833 197 813 L 104 913 C 160 969 224 1015 296 1051 C 367 1086 446 1104 532 1104 C 637 1104 715 1075 765 1019 C 815 963 840 882 840 778 L 840 266 C 840 200 841 146 845 104 C 849 62 856 28 866 0 L 700 0 C 694 21 688 42 684 62 C 680 82 678 108 678 139 C 634 91 582 53 524 26 C 466 0 402 -14 332 -14 Z M 387 121 C 443 121 496 134 546 160 C 596 186 640 220 678 262 L 678 594 C 594 576 524 555 468 532 C 411 509 365 484 331 458 C 297 431 272 402 258 372 C 243 342 236 311 236 279 C 236 224 249 184 276 159 C 302 133 339 121 387 121 Z M 564 1378 L 727 1378 L 727 1194 L 564 1194 L 564 1378 Z M 238 1378 L 404 1378 L 404 1194 L 238 1194 L 238 1378 Z" unicode="ä" />
<glyph horiz-adv-x="965" d="M 332 -14 C 250 -14 187 9 142 57 C 96 104 74 170 74 256 C 74 310 85 360 109 406 C 132 452 168 495 217 533 C 266 571 329 606 405 636 C 481 666 572 691 678 713 L 678 778 C 678 840 664 885 638 914 C 611 943 570 958 516 958 C 483 958 452 954 422 946 C 392 938 364 928 338 915 C 311 902 286 887 263 869 C 239 851 217 833 197 813 L 104 913 C 160 969 224 1015 296 1051 C 367 1086 446 1104 532 1104 C 637 1104 715 1075 765 1019 C 815 963 840 882 840 778 L 840 266 C 840 200 841 146 845 104 C 849 62 856 28 866 0 L 700 0 C 694 21 688 42 684 62 C 680 82 678 108 678 139 C 634 91 582 53 524 26 C 466 0 402 -14 332 -14 Z M 387 121 C 443 121 496 134 546 160 C 596 186 640 220 678 262 L 678 594 C 594 576 524 555 468 532 C 411 509 365 484 331 458 C 297 431 272 402 258 372 C 243 342 236 311 236 279 C 236 224 249 184 276 159 C 302 133 339 121 387 121 Z M 482 1176 C 455 1176 431 1181 409 1191 C 387 1201 369 1214 354 1232 C 339 1249 328 1270 320 1294 C 312 1318 308 1344 308 1372 C 308 1400 312 1426 320 1450 C 328 1474 339 1494 354 1512 C 369 1529 387 1542 409 1552 C 431 1562 455 1567 482 1567 C 508 1567 531 1562 553 1552 C 574 1542 592 1529 608 1512 C 623 1494 635 1474 643 1450 C 651 1426 656 1400 656 1372 C 656 1344 651 1318 643 1294 C 635 1270 623 1249 608 1232 C 592 1214 574 1201 553 1191 C 531 1181 508 1176 482 1176 Z M 482 1255 C 496 1255 508 1258 519 1264 C 529 1270 538 1279 546 1290 C 553 1300 558 1313 562 1327 C 566 1341 568 1356 568 1372 C 568 1387 566 1401 562 1415 C 558 1429 553 1441 546 1451 C 538 1461 529 1470 519 1476 C 508 1482 496 1485 482 1485 C 454 1485 432 1474 418 1452 C 403 1430 396 1403 396 1372 C 396 1356 397 1341 401 1327 C 405 1313 410 1300 418 1290 C 425 1279 434 1270 445 1264 C 455 1258 468 1255 482 1255 Z" unicode="å" />
<glyph horiz-adv-x="1552" d="M 745 193 C 725 168 701 143 674 118 C 646 93 615 71 581 51 C 546 31 508 14 466 2 C 424 -9 380 -16 332 -16 C 250 -16 187 7 142 55 C 96 102 74 168 74 254 C 74 308 85 358 109 405 C 132 451 168 494 217 533 C 266 571 329 606 405 636 C 481 666 572 691 678 713 L 678 778 C 678 840 664 885 638 914 C 611 943 570 958 516 958 C 483 958 452 954 422 946 C 392 938 364 928 338 915 C 311 902 286 887 263 869 C 239 851 217 833 197 813 L 104 913 C 160 969 225 1015 297 1051 C 369 1086 449 1104 539 1104 C 611 1104 668 1089 709 1060 C 749 1030 778 989 795 936 C 833 992 877 1034 929 1062 C 981 1090 1033 1104 1087 1104 C 1147 1104 1202 1092 1250 1068 C 1298 1044 1338 1008 1372 962 C 1405 915 1430 857 1448 787 C 1466 717 1475 637 1475 547 L 1475 506 L 836 506 C 839 378 863 281 909 215 C 955 149 1017 117 1096 117 C 1127 117 1155 121 1180 130 C 1204 138 1227 151 1247 167 C 1267 183 1285 202 1302 226 C 1319 249 1336 275 1352 305 L 1466 233 C 1447 194 1425 159 1400 127 C 1374 95 1346 68 1314 46 C 1282 24 1248 7 1210 -5 C 1172 -17 1131 -23 1087 -23 C 1013 -23 946 -5 887 30 C 828 66 781 120 745 193 Z M 1317 631 C 1314 679 1307 724 1297 765 C 1287 806 1272 841 1253 870 C 1234 899 1211 922 1183 938 C 1155 954 1123 963 1087 963 C 1057 963 1028 956 1000 943 C 972 930 946 910 924 883 C 901 856 882 822 867 780 C 852 738 842 689 838 631 L 1317 631 Z M 680 592 C 596 574 525 553 469 530 C 412 506 366 481 332 454 C 297 427 272 399 258 369 C 243 339 236 308 236 276 C 236 222 249 182 276 156 C 302 130 339 117 387 117 C 495 117 603 175 709 291 C 688 359 678 442 678 541 C 678 550 678 559 678 567 C 678 575 678 583 680 592 Z" unicode="æ" />
<glyph horiz-adv-x="934" d="M 492 -23 C 434 -23 381 -11 331 13 C 281 37 237 72 200 120 C 163 167 134 226 112 296 C 90 366 80 448 80 541 C 80 638 91 722 114 793 C 136 863 167 922 206 968 C 244 1014 289 1048 340 1070 C 391 1092 445 1104 502 1104 C 556 1104 603 1095 643 1078 C 683 1060 717 1037 746 1008 C 774 978 798 944 817 905 C 835 866 851 825 864 782 L 713 741 C 703 775 691 805 679 832 C 667 859 652 882 635 901 C 618 920 598 935 576 945 C 554 955 528 961 498 961 C 463 961 430 953 400 937 C 370 921 343 896 320 862 C 297 828 279 784 266 731 C 252 678 246 615 246 541 C 246 475 251 416 263 364 C 274 312 290 267 312 231 C 333 194 359 166 391 146 C 422 126 458 117 498 117 C 555 117 602 134 639 170 C 675 206 704 262 725 340 L 870 301 C 840 199 794 120 732 63 C 670 5 590 -23 492 -23 Z M 471 -416 C 427 -416 384 -409 344 -396 C 304 -382 268 -364 237 -342 L 286 -264 C 312 -282 340 -297 372 -308 C 403 -318 435 -324 469 -324 C 510 -324 541 -316 561 -300 C 581 -284 592 -261 592 -231 C 592 -186 568 -164 520 -164 C 501 -164 484 -167 470 -175 C 455 -182 442 -191 430 -203 L 366 -174 L 418 12 L 510 12 L 477 -111 C 489 -101 504 -94 520 -88 C 536 -82 554 -80 575 -80 C 591 -80 608 -82 624 -88 C 640 -94 655 -102 668 -114 C 680 -125 690 -139 698 -157 C 706 -175 710 -196 710 -221 C 710 -252 703 -280 691 -304 C 678 -328 661 -349 639 -365 C 617 -381 591 -394 562 -403 C 533 -411 503 -416 471 -416 Z" unicode="ç" />
<glyph horiz-adv-x="963" d="M 496 -23 C 436 -23 381 -11 331 12 C 280 35 236 70 199 117 C 162 164 133 223 112 294 C 90 364 80 447 80 541 C 80 638 91 722 115 793 C 138 863 169 922 208 968 C 246 1014 291 1048 341 1070 C 391 1092 444 1104 498 1104 C 558 1104 611 1092 659 1068 C 706 1044 746 1008 780 962 C 813 915 838 857 856 787 C 874 717 883 637 883 547 L 883 506 L 244 506 C 247 378 271 281 317 215 C 363 149 425 117 504 117 C 536 117 564 121 589 130 C 613 138 636 151 656 167 C 676 183 695 202 712 226 C 728 249 744 275 760 305 L 874 233 C 855 194 833 159 807 127 C 781 95 753 68 721 46 C 689 24 655 7 617 -5 C 579 -17 538 -23 496 -23 Z M 725 631 C 722 679 715 724 705 765 C 695 806 680 841 662 870 C 643 899 620 922 592 938 C 564 954 532 963 496 963 C 466 963 436 956 408 943 C 380 930 354 910 332 883 C 310 856 291 822 276 780 C 260 738 250 689 246 631 L 725 631 Z M 221 1516 L 414 1516 L 578 1196 L 467 1196 L 221 1516 Z" unicode="è" />
<glyph horiz-adv-x="963" d="M 564 1516 L 756 1516 L 508 1196 L 398 1196 L 564 1516 Z M 496 -23 C 436 -23 381 -11 331 12 C 280 35 236 70 199 117 C 162 164 133 223 112 294 C 90 364 80 447 80 541 C 80 638 91 722 115 793 C 138 863 169 922 208 968 C 246 1014 291 1048 341 1070 C 391 1092 444 1104 498 1104 C 558 1104 611 1092 659 1068 C 706 1044 746 1008 780 962 C 813 915 838 857 856 787 C 874 717 883 637 883 547 L 883 506 L 244 506 C 247 378 271 281 317 215 C 363 149 425 117 504 117 C 536 117 564 121 589 130 C 613 138 636 151 656 167 C 676 183 695 202 712 226 C 728 249 744 275 760 305 L 874 233 C 855 194 833 159 807 127 C 781 95 753 68 721 46 C 689 24 655 7 617 -5 C 579 -17 538 -23 496 -23 Z M 725 631 C 722 679 715 724 705 765 C 695 806 680 841 662 870 C 643 899 620 922 592 938 C 564 954 532 963 496 963 C 466 963 436 956 408 943 C 380 930 354 910 332 883 C 310 856 291 822 276 780 C 260 738 250 689 246 631 L 725 631 Z" unicode="é" />
<glyph horiz-adv-x="963" d="M 422 1516 L 537 1516 L 762 1190 L 660 1190 L 480 1372 L 297 1190 L 197 1190 L 422 1516 Z M 496 -23 C 436 -23 381 -11 331 12 C 280 35 236 70 199 117 C 162 164 133 223 112 294 C 90 364 80 447 80 541 C 80 638 91 722 115 793 C 138 863 169 922 208 968 C 246 1014 291 1048 341 1070 C 391 1092 444 1104 498 1104 C 558 1104 611 1092 659 1068 C 706 1044 746 1008 780 962 C 813 915 838 857 856 787 C 874 717 883 637 883 547 L 883 506 L 244 506 C 247 378 271 281 317 215 C 363 149 425 117 504 117 C 536 117 564 121 589 130 C 613 138 636 151 656 167 C 676 183 695 202 712 226 C 728 249 744 275 760 305 L 874 233 C 855 194 833 159 807 127 C 781 95 753 68 721 46 C 689 24 655 7 617 -5 C 579 -17 538 -23 496 -23 Z M 725 631 C 722 679 715 724 705 765 C 695 806 680 841 662 870 C 643 899 620 922 592 938 C 564 954 532 963 496 963 C 466 963 436 956 408 943 C 380 930 354 910 332 883 C 310 856 291 822 276 780 C 260 738 250 689 246 631 L 725 631 Z" unicode="ê" />
<glyph horiz-adv-x="963" d="M 562 1378 L 725 1378 L 725 1194 L 562 1194 L 562 1378 Z M 236 1378 L 402 1378 L 402 1194 L 236 1194 L 236 1378 Z M 496 -23 C 436 -23 381 -11 331 12 C 280 35 236 70 199 117 C 162 164 133 223 112 294 C 90 364 80 447 80 541 C 80 638 91 722 115 793 C 138 863 169 922 208 968 C 246 1014 291 1048 341 1070 C 391 1092 444 1104 498 1104 C 558 1104 611 1092 659 1068 C 706 1044 746 1008 780 962 C 813 915 838 857 856 787 C 874 717 883 637 883 547 L 883 506 L 244 506 C 247 378 271 281 317 215 C 363 149 425 117 504 117 C 536 117 564 121 589 130 C 613 138 636 151 656 167 C 676 183 695 202 712 226 C 728 249 744 275 760 305 L 874 233 C 855 194 833 159 807 127 C 781 95 753 68 721 46 C 689 24 655 7 617 -5 C 579 -17 538 -23 496 -23 Z M 725 631 C 722 679 715 724 705 765 C 695 806 680 841 662 870 C 643 899 620 922 592 938 C 564 954 532 963 496 963 C 466 963 436 956 408 943 C 380 930 354 910 332 883 C 310 856 291 822 276 780 C 260 738 250 689 246 631 L 725 631 Z" unicode="ë" />
<glyph horiz-adv-x="451" d="M 141 1081 L 307 1081 L 307 0 L 141 0 L 141 1081 Z M -63 1516 L 130 1516 L 294 1196 L 183 1196 L -63 1516 Z" unicode="ì" />
<glyph horiz-adv-x="451" d="M 327 1516 L 519 1516 L 271 1196 L 161 1196 L 327 1516 Z M 141 1081 L 307 1081 L 307 0 L 141 0 L 141 1081 Z" unicode="í" />
<glyph horiz-adv-x="451" d="M 169 1516 L 284 1516 L 509 1190 L 407 1190 L 227 1372 L 44 1190 L -56 1190 L 169 1516 Z M 141 1081 L 307 1081 L 307 0 L 141 0 L 141 1081 Z" unicode="î" />
<glyph horiz-adv-x="451" d="M 309 1378 L 472 1378 L 472 1194 L 309 1194 L 309 1378 Z M -17 1378 L 149 1378 L 149 1194 L -17 1194 L -17 1378 Z M 141 1081 L 307 1081 L 307 0 L 141 0 L 141 1081 Z" unicode="ï" />
<glyph horiz-adv-x="1014" d="M 453 1145 L 393 1249 L 524 1325 C 506 1343 488 1362 468 1380 C 448 1398 426 1416 403 1434 L 496 1534 C 552 1490 603 1445 649 1399 L 805 1489 L 862 1382 L 729 1305 C 767 1253 799 1198 825 1141 C 851 1084 871 1024 887 962 C 903 899 914 833 921 765 C 928 696 932 624 932 549 C 932 454 921 371 900 300 C 878 228 849 169 811 121 C 773 73 729 37 677 13 C 625 -11 568 -23 508 -23 C 444 -23 385 -10 333 14 C 280 39 235 75 198 122 C 160 169 131 227 111 295 C 90 363 80 440 80 526 C 80 614 90 691 110 758 C 130 824 157 880 193 926 C 229 971 271 1005 321 1028 C 371 1051 425 1063 485 1063 C 511 1063 538 1059 564 1053 C 590 1046 614 1036 638 1023 C 661 1010 682 994 702 974 C 722 954 738 931 752 905 C 740 952 723 1003 701 1059 C 678 1115 645 1172 602 1231 L 453 1145 Z M 508 115 C 550 115 587 125 619 145 C 651 165 679 193 701 229 C 723 265 739 308 751 359 C 762 409 768 466 768 528 C 768 586 762 640 751 690 C 740 740 724 783 702 819 C 680 855 653 883 621 903 C 588 923 550 934 508 934 C 465 934 427 924 395 905 C 362 886 335 859 313 824 C 291 789 274 747 263 697 C 251 647 246 590 246 528 C 246 469 251 414 261 364 C 271 314 287 270 309 233 C 331 196 358 167 391 146 C 423 125 462 115 508 115 Z" unicode="ð" />
<glyph horiz-adv-x="1028" d="M 131 1081 L 297 1081 L 297 932 C 315 952 336 972 361 992 C 385 1012 412 1031 442 1048 C 471 1064 502 1078 536 1088 C 569 1098 603 1104 639 1104 C 726 1104 792 1078 837 1027 C 882 976 905 901 905 803 L 905 0 L 741 0 L 741 768 C 741 832 729 880 706 911 C 682 942 643 958 588 958 C 562 958 535 953 509 944 C 482 935 456 923 431 909 C 405 894 381 877 359 859 C 336 840 315 821 297 803 L 297 0 L 131 0 L 131 1081 Z M 649 1186 C 621 1186 594 1192 570 1204 C 546 1216 523 1229 502 1243 C 480 1257 460 1270 441 1282 C 421 1294 403 1300 385 1300 C 359 1300 341 1291 330 1275 C 318 1258 313 1230 313 1190 L 213 1190 C 213 1273 227 1334 256 1373 C 284 1412 326 1432 381 1432 C 408 1432 434 1426 458 1414 C 482 1402 505 1388 527 1374 C 549 1360 569 1347 589 1335 C 609 1323 628 1317 647 1317 C 670 1317 687 1324 699 1340 C 710 1356 716 1385 716 1427 L 815 1427 C 815 1343 800 1281 772 1243 C 743 1205 702 1186 649 1186 Z" unicode="ñ" />
<glyph horiz-adv-x="1014" d="M 508 -23 C 448 -23 392 -11 340 13 C 288 37 242 72 204 120 C 165 167 135 226 113 296 C 91 366 80 448 80 541 C 80 633 91 715 113 785 C 135 855 165 914 203 962 C 241 1009 287 1044 339 1068 C 391 1092 447 1104 508 1104 C 568 1104 624 1092 676 1068 C 728 1044 773 1009 811 962 C 849 914 879 855 901 785 C 923 715 934 633 934 541 C 934 448 923 366 901 296 C 879 226 849 167 811 120 C 773 72 728 37 676 13 C 624 -11 568 -23 508 -23 Z M 508 117 C 550 117 588 127 621 147 C 653 167 680 195 702 232 C 724 269 740 314 751 366 C 762 418 768 477 768 541 C 768 599 762 653 752 704 C 742 755 726 800 705 838 C 684 876 657 906 624 928 C 591 950 552 961 508 961 C 464 961 426 951 394 931 C 361 911 334 882 312 845 C 290 808 273 764 262 712 C 251 660 246 603 246 541 C 246 481 251 426 261 375 C 271 323 286 278 307 240 C 328 202 355 172 388 150 C 421 128 461 117 508 117 Z M 231 1516 L 424 1516 L 588 1196 L 477 1196 L 231 1516 Z" unicode="ò" />
<glyph horiz-adv-x="1014" d="M 590 1516 L 782 1516 L 534 1196 L 424 1196 L 590 1516 Z M 508 -23 C 448 -23 392 -11 340 13 C 288 37 242 72 204 120 C 165 167 135 226 113 296 C 91 366 80 448 80 541 C 80 633 91 715 113 785 C 135 855 165 914 203 962 C 241 1009 287 1044 339 1068 C 391 1092 447 1104 508 1104 C 568 1104 624 1092 676 1068 C 728 1044 773 1009 811 962 C 849 914 879 855 901 785 C 923 715 934 633 934 541 C 934 448 923 366 901 296 C 879 226 849 167 811 120 C 773 72 728 37 676 13 C 624 -11 568 -23 508 -23 Z M 508 117 C 550 117 588 127 621 147 C 653 167 680 195 702 232 C 724 269 740 314 751 366 C 762 418 768 477 768 541 C 768 599 762 653 752 704 C 742 755 726 800 705 838 C 684 876 657 906 624 928 C 591 950 552 961 508 961 C 464 961 426 951 394 931 C 361 911 334 882 312 845 C 290 808 273 764 262 712 C 251 660 246 603 246 541 C 246 481 251 426 261 375 C 271 323 286 278 307 240 C 328 202 355 172 388 150 C 421 128 461 117 508 117 Z" unicode="ó" />
<glyph horiz-adv-x="1014" d="M 448 1516 L 563 1516 L 788 1190 L 686 1190 L 506 1372 L 323 1190 L 223 1190 L 448 1516 Z M 508 -23 C 448 -23 392 -11 340 13 C 288 37 242 72 204 120 C 165 167 135 226 113 296 C 91 366 80 448 80 541 C 80 633 91 715 113 785 C 135 855 165 914 203 962 C 241 1009 287 1044 339 1068 C 391 1092 447 1104 508 1104 C 568 1104 624 1092 676 1068 C 728 1044 773 1009 811 962 C 849 914 879 855 901 785 C 923 715 934 633 934 541 C 934 448 923 366 901 296 C 879 226 849 167 811 120 C 773 72 728 37 676 13 C 624 -11 568 -23 508 -23 Z M 508 117 C 550 117 588 127 621 147 C 653 167 680 195 702 232 C 724 269 740 314 751 366 C 762 418 768 477 768 541 C 768 599 762 653 752 704 C 742 755 726 800 705 838 C 684 876 657 906 624 928 C 591 950 552 961 508 961 C 464 961 426 951 394 931 C 361 911 334 882 312 845 C 290 808 273 764 262 712 C 251 660 246 603 246 541 C 246 481 251 426 261 375 C 271 323 286 278 307 240 C 328 202 355 172 388 150 C 421 128 461 117 508 117 Z" unicode="ô" />
<glyph horiz-adv-x="1014" d="M 508 -23 C 448 -23 392 -11 340 13 C 288 37 242 72 204 120 C 165 167 135 226 113 296 C 91 366 80 448 80 541 C 80 633 91 715 113 785 C 135 855 165 914 203 962 C 241 1009 287 1044 339 1068 C 391 1092 447 1104 508 1104 C 568 1104 624 1092 676 1068 C 728 1044 773 1009 811 962 C 849 914 879 855 901 785 C 923 715 934 633 934 541 C 934 448 923 366 901 296 C 879 226 849 167 811 120 C 773 72 728 37 676 13 C 624 -11 568 -23 508 -23 Z M 508 117 C 550 117 588 127 621 147 C 653 167 680 195 702 232 C 724 269 740 314 751 366 C 762 418 768 477 768 541 C 768 599 762 653 752 704 C 742 755 726 800 705 838 C 684 876 657 906 624 928 C 591 950 552 961 508 961 C 464 961 426 951 394 931 C 361 911 334 882 312 845 C 290 808 273 764 262 712 C 251 660 246 603 246 541 C 246 481 251 426 261 375 C 271 323 286 278 307 240 C 328 202 355 172 388 150 C 421 128 461 117 508 117 Z M 641 1186 C 613 1186 586 1192 562 1204 C 538 1216 515 1229 494 1243 C 472 1257 452 1270 433 1282 C 413 1294 395 1300 377 1300 C 351 1300 333 1291 322 1275 C 310 1258 305 1230 305 1190 L 205 1190 C 205 1273 219 1334 248 1373 C 276 1412 318 1432 373 1432 C 400 1432 426 1426 450 1414 C 474 1402 497 1388 519 1374 C 541 1360 561 1347 581 1335 C 601 1323 620 1317 639 1317 C 662 1317 679 1324 691 1340 C 702 1356 708 1385 708 1427 L 807 1427 C 807 1343 792 1281 764 1243 C 735 1205 694 1186 641 1186 Z" unicode="õ" />
<glyph horiz-adv-x="1014" d="M 588 1378 L 751 1378 L 751 1194 L 588 1194 L 588 1378 Z M 262 1378 L 428 1378 L 428 1194 L 262 1194 L 262 1378 Z M 508 -23 C 448 -23 392 -11 340 13 C 288 37 242 72 204 120 C 165 167 135 226 113 296 C 91 366 80 448 80 541 C 80 633 91 715 113 785 C 135 855 165 914 203 962 C 241 1009 287 1044 339 1068 C 391 1092 447 1104 508 1104 C 568 1104 624 1092 676 1068 C 728 1044 773 1009 811 962 C 849 914 879 855 901 785 C 923 715 934 633 934 541 C 934 448 923 366 901 296 C 879 226 849 167 811 120 C 773 72 728 37 676 13 C 624 -11 568 -23 508 -23 Z M 508 117 C 550 117 588 127 621 147 C 653 167 680 195 702 232 C 724 269 740 314 751 366 C 762 418 768 477 768 541 C 768 599 762 653 752 704 C 742 755 726 800 705 838 C 684 876 657 906 624 928 C 591 950 552 961 508 961 C 464 961 426 951 394 931 C 361 911 334 882 312 845 C 290 808 273 764 262 712 C 251 660 246 603 246 541 C 246 481 251 426 261 375 C 271 323 286 278 307 240 C 328 202 355 172 388 150 C 421 128 461 117 508 117 Z" unicode="ö" />
<glyph horiz-adv-x="1096" d="M 459 1135 L 633 1135 L 633 948 L 459 948 L 459 1135 Z M 100 745 L 995 745 L 995 604 L 100 604 L 100 745 Z M 459 403 L 633 403 L 633 215 L 459 215 L 459 403 Z" unicode="÷" />
<glyph horiz-adv-x="1014" d="M 827 942 C 861 894 887 837 906 771 C 924 705 934 628 934 541 C 934 448 923 366 901 296 C 879 226 849 167 811 120 C 773 72 728 37 676 13 C 624 -11 568 -23 508 -23 C 462 -23 419 -16 378 -2 C 337 12 299 32 264 59 L 172 -84 L 80 -27 L 186 143 C 152 191 125 248 107 314 C 89 380 80 455 80 541 C 80 633 91 715 113 785 C 135 855 165 914 203 962 C 241 1009 287 1044 339 1068 C 391 1092 447 1104 508 1104 C 599 1104 679 1077 748 1024 L 840 1165 L 932 1108 L 827 942 Z M 668 891 C 648 913 625 931 599 944 C 572 956 542 963 508 963 C 464 963 426 952 393 932 C 359 912 331 883 309 846 C 287 809 270 765 259 713 C 247 661 242 603 242 541 C 242 492 245 446 252 402 C 259 358 270 319 285 283 L 668 891 Z M 340 188 C 360 164 384 146 412 134 C 440 121 472 115 508 115 C 550 115 588 125 621 145 C 653 165 681 194 703 232 C 725 269 741 314 753 366 C 764 418 770 477 770 541 C 770 589 766 634 759 678 C 752 721 741 761 727 797 L 340 188 Z" unicode="ø" />
<glyph horiz-adv-x="1028" d="M 389 -23 C 301 -23 235 2 190 53 C 145 104 123 179 123 279 L 123 1081 L 287 1081 L 287 309 C 287 245 299 198 323 167 C 347 136 388 121 446 121 C 497 121 546 135 594 164 C 641 193 687 230 731 276 L 731 1081 L 897 1081 L 897 0 L 731 0 L 731 150 C 710 127 687 105 663 84 C 638 63 611 45 583 29 C 554 13 523 0 491 -9 C 459 -18 425 -23 389 -23 Z M 270 1516 L 463 1516 L 627 1196 L 516 1196 L 270 1516 Z" unicode="ù" />
<glyph horiz-adv-x="1028" d="M 568 1516 L 760 1516 L 512 1196 L 402 1196 L 568 1516 Z M 389 -23 C 301 -23 235 2 190 53 C 145 104 123 179 123 279 L 123 1081 L 287 1081 L 287 309 C 287 245 299 198 323 167 C 347 136 388 121 446 121 C 497 121 546 135 594 164 C 641 193 687 230 731 276 L 731 1081 L 897 1081 L 897 0 L 731 0 L 731 150 C 710 127 687 105 663 84 C 638 63 611 45 583 29 C 554 13 523 0 491 -9 C 459 -18 425 -23 389 -23 Z" unicode="ú" />
<glyph horiz-adv-x="1028" d="M 456 1516 L 571 1516 L 796 1190 L 694 1190 L 514 1372 L 331 1190 L 231 1190 L 456 1516 Z M 389 -23 C 301 -23 235 2 190 53 C 145 104 123 179 123 279 L 123 1081 L 287 1081 L 287 309 C 287 245 299 198 323 167 C 347 136 388 121 446 121 C 497 121 546 135 594 164 C 641 193 687 230 731 276 L 731 1081 L 897 1081 L 897 0 L 731 0 L 731 150 C 710 127 687 105 663 84 C 638 63 611 45 583 29 C 554 13 523 0 491 -9 C 459 -18 425 -23 389 -23 Z" unicode="û" />
<glyph horiz-adv-x="1028" d="M 596 1378 L 759 1378 L 759 1194 L 596 1194 L 596 1378 Z M 270 1378 L 436 1378 L 436 1194 L 270 1194 L 270 1378 Z M 389 -23 C 301 -23 235 2 190 53 C 145 104 123 179 123 279 L 123 1081 L 287 1081 L 287 309 C 287 245 299 198 323 167 C 347 136 388 121 446 121 C 497 121 546 135 594 164 C 641 193 687 230 731 276 L 731 1081 L 897 1081 L 897 0 L 731 0 L 731 150 C 710 127 687 105 663 84 C 638 63 611 45 583 29 C 554 13 523 0 491 -9 C 459 -18 425 -23 389 -23 Z" unicode="ü" />
<glyph horiz-adv-x="932" d="M 180 -412 C 144 -412 110 -409 80 -403 C 50 -397 27 -392 12 -387 L 45 -256 C 58 -259 76 -262 100 -266 C 124 -270 149 -272 176 -272 C 199 -272 219 -268 236 -262 C 253 -255 268 -245 281 -231 C 294 -217 305 -199 315 -178 C 325 -157 334 -132 344 -104 L 375 -10 L 37 1081 L 207 1081 L 371 516 C 379 486 387 457 395 431 C 403 404 410 377 417 351 C 424 325 431 298 438 272 C 444 246 451 218 459 190 L 463 190 C 471 220 478 248 485 276 C 492 303 499 330 507 358 C 515 385 522 412 530 440 C 538 468 546 497 555 528 L 715 1081 L 872 1081 L 500 -119 C 484 -168 467 -211 449 -248 C 431 -284 410 -315 386 -339 C 362 -363 333 -382 300 -394 C 266 -406 226 -412 180 -412 Z M 549 1516 L 741 1516 L 493 1196 L 383 1196 L 549 1516 Z" unicode="ý" />
<glyph horiz-adv-x="1040" d="M 131 1516 L 297 1516 L 297 944 C 313 964 331 983 351 1002 C 371 1021 394 1038 418 1053 C 442 1068 469 1080 499 1090 C 528 1099 560 1104 594 1104 C 646 1104 695 1093 740 1071 C 785 1049 824 1015 857 969 C 889 923 915 865 933 795 C 951 724 961 640 961 543 C 961 445 951 360 932 290 C 912 220 886 162 852 117 C 818 71 779 38 733 16 C 687 -5 637 -16 584 -16 C 521 -16 466 -2 420 23 C 374 49 333 85 297 131 L 297 -410 L 131 -410 L 131 1516 Z M 553 121 C 589 121 621 129 651 145 C 681 161 706 186 728 220 C 749 254 765 297 777 350 C 789 403 795 467 795 541 C 795 613 789 675 777 728 C 765 780 748 824 726 859 C 704 893 679 919 649 936 C 619 952 587 961 551 961 C 526 961 502 956 479 948 C 455 939 433 928 411 914 C 389 900 369 884 350 866 C 330 848 313 829 297 811 L 297 268 C 336 220 376 184 418 159 C 460 133 505 121 553 121 Z" unicode="þ" />
<glyph horiz-adv-x="932" d="M 180 -412 C 144 -412 110 -409 80 -403 C 50 -397 27 -392 12 -387 L 45 -256 C 58 -259 76 -262 100 -266 C 124 -270 149 -272 176 -272 C 199 -272 219 -268 236 -262 C 253 -255 268 -245 281 -231 C 294 -217 305 -199 315 -178 C 325 -157 334 -132 344 -104 L 375 -10 L 37 1081 L 207 1081 L 371 516 C 379 486 387 457 395 431 C 403 404 410 377 417 351 C 424 325 431 298 438 272 C 444 246 451 218 459 190 L 463 190 C 471 220 478 248 485 276 C 492 303 499 330 507 358 C 515 385 522 412 530 440 C 538 468 546 497 555 528 L 715 1081 L 872 1081 L 500 -119 C 484 -168 467 -211 449 -248 C 431 -284 410 -315 386 -339 C 362 -363 333 -382 300 -394 C 266 -406 226 -412 180 -412 Z M 547 1378 L 710 1378 L 710 1194 L 547 1194 L 547 1378 Z M 221 1378 L 387 1378 L 387 1194 L 221 1194 L 221 1378 Z" unicode="ÿ" />
<glyph horiz-adv-x="1155" d="" unicode="Ā" />
<glyph horiz-adv-x="965" d="" unicode="ā" />
<glyph horiz-adv-x="1155" d="" unicode="Ă" />
<glyph horiz-adv-x="965" d="" unicode="ă" />
<glyph horiz-adv-x="1155" d="" unicode="Ą" />
<glyph horiz-adv-x="965" d="" unicode="ą" />
<glyph horiz-adv-x="1200" d="" unicode="Ć" />
<glyph horiz-adv-x="934" d="" unicode="ć" />
<glyph horiz-adv-x="1200" d="" unicode="Ĉ" />
<glyph horiz-adv-x="934" d="" unicode="ĉ" />
<glyph horiz-adv-x="1200" d="" unicode="Ċ" />
<glyph horiz-adv-x="934" d="" unicode="ċ" />
<glyph horiz-adv-x="1200" d="" unicode="Č" />
<glyph horiz-adv-x="934" d="" unicode="č" />
<glyph horiz-adv-x="1227" d="" unicode="Ď" />
<glyph horiz-adv-x="1040" d="" unicode="ď" />
<glyph horiz-adv-x="1227" d="" unicode="Đ" />
<glyph horiz-adv-x="1040" d="" unicode="đ" />
<glyph horiz-adv-x="1040" d="" unicode="Ē" />
<glyph horiz-adv-x="963" d="" unicode="ē" />
<glyph horiz-adv-x="1040" d="" unicode="Ĕ" />
<glyph horiz-adv-x="963" d="" unicode="ĕ" />
<glyph horiz-adv-x="1040" d="" unicode="Ė" />
<glyph horiz-adv-x="963" d="" unicode="ė" />
<glyph horiz-adv-x="1040" d="" unicode="Ę" />
<glyph horiz-adv-x="963" d="" unicode="ę" />
<glyph horiz-adv-x="1040" d="" unicode="Ě" />
<glyph horiz-adv-x="963" d="" unicode="ě" />
<glyph horiz-adv-x="1251" d="" unicode="Ĝ" />
<glyph horiz-adv-x="1010" d="" unicode="ĝ" />
<glyph horiz-adv-x="1251" d="" unicode="Ğ" />
<glyph horiz-adv-x="1010" d="" unicode="ğ" />
<glyph horiz-adv-x="1251" d="" unicode="Ġ" />
<glyph horiz-adv-x="1010" d="" unicode="ġ" />
<glyph horiz-adv-x="1251" d="" unicode="Ģ" />
<glyph horiz-adv-x="1010" d="" unicode="ģ" />
<glyph horiz-adv-x="1270" d="" unicode="Ĥ" />
<glyph horiz-adv-x="1028" d="" unicode="ĥ" />
<glyph horiz-adv-x="1270" d="" unicode="Ħ" />
<glyph horiz-adv-x="1028" d="" unicode="ħ" />
<glyph horiz-adv-x="508" d="" unicode="Ĩ" />
<glyph horiz-adv-x="451" d="" unicode="ĩ" />
<glyph horiz-adv-x="508" d="" unicode="Ī" />
<glyph horiz-adv-x="451" d="" unicode="ī" />
<glyph horiz-adv-x="508" d="" unicode="Ĭ" />
<glyph horiz-adv-x="451" d="" unicode="ĭ" />
<glyph horiz-adv-x="508" d="" unicode="Į" />
<glyph horiz-adv-x="451" d="" unicode="į" />
<glyph horiz-adv-x="508" d="" unicode="İ" />
<glyph horiz-adv-x="451" d="M 141 1081 L 307 1081 L 307 0 L 141 0 L 141 1081 Z" unicode="ı" />
<glyph horiz-adv-x="1327" d="" unicode="Ĳ" />
<glyph horiz-adv-x="899" d="" unicode="ĳ" />
<glyph horiz-adv-x="883" d="" unicode="Ĵ" />
<glyph horiz-adv-x="451" d="" unicode="ĵ" />
<glyph horiz-adv-x="1163" d="" unicode="Ķ" />
<glyph horiz-adv-x="940" d="" unicode="ķ" />
<glyph horiz-adv-x="940" d="" unicode="ĸ" />
<glyph horiz-adv-x="991" d="" unicode="Ĺ" />
<glyph horiz-adv-x="451" d="" unicode="ĺ" />
<glyph horiz-adv-x="991" d="" unicode="Ļ" />
<glyph horiz-adv-x="451" d="" unicode="ļ" />
<glyph horiz-adv-x="991" d="" unicode="Ľ" />
<glyph horiz-adv-x="451" d="" unicode="ľ" />
<glyph horiz-adv-x="1018" d="" unicode="Ŀ" />
<glyph horiz-adv-x="647" d="" unicode="ŀ" />
<glyph horiz-adv-x="991" d="" unicode="Ł" />
<glyph horiz-adv-x="532" d="" unicode="ł" />
<glyph horiz-adv-x="1284" d="" unicode="Ń" />
<glyph horiz-adv-x="1028" d="" unicode="ń" />
<glyph horiz-adv-x="1284" d="" unicode="Ņ" />
<glyph horiz-adv-x="1028" d="" unicode="ņ" />
<glyph horiz-adv-x="1284" d="" unicode="Ň" />
<glyph horiz-adv-x="1028" d="" unicode="ň" />
<glyph horiz-adv-x="1284" d="" unicode="Ŋ" />
<glyph horiz-adv-x="1028" d="" unicode="ŋ" />
<glyph horiz-adv-x="1284" d="" unicode="Ō" />
<glyph horiz-adv-x="1014" d="" unicode="ō" />
<glyph horiz-adv-x="1284" d="" unicode="Ŏ" />
<glyph horiz-adv-x="1014" d="" unicode="ŏ" />
<glyph horiz-adv-x="1284" d="" unicode="Ő" />
<glyph horiz-adv-x="1014" d="" unicode="ő" />
<glyph horiz-adv-x="1898" d="M 1028 1516 L 1786 1516 L 1786 1358 L 1184 1358 L 1184 877 L 1626 877 L 1626 723 L 1184 723 L 1184 156 L 1823 156 L 1823 0 L 1028 0 L 1028 213 C 986 131 932 71 866 31 C 800 -9 726 -29 643 -29 C 563 -29 490 -12 423 22 C 356 56 298 106 249 173 C 200 239 162 322 135 420 C 107 518 94 630 94 758 C 94 885 107 998 135 1096 C 162 1194 200 1276 249 1342 C 298 1408 356 1459 423 1493 C 490 1527 563 1544 643 1544 C 726 1544 800 1524 866 1484 C 932 1444 986 1385 1028 1307 L 1028 1516 Z M 643 127 C 700 127 752 141 798 169 C 844 197 883 237 915 291 C 947 345 972 411 990 489 C 1007 567 1016 657 1016 758 C 1016 858 1007 947 990 1025 C 972 1103 947 1168 915 1222 C 883 1276 844 1316 798 1344 C 752 1372 700 1386 643 1386 C 585 1386 532 1372 486 1344 C 439 1316 399 1276 367 1222 C 334 1168 309 1103 292 1025 C 274 947 266 858 266 758 C 266 657 274 567 292 489 C 309 411 334 345 367 291 C 399 237 439 197 486 169 C 532 141 585 127 643 127 Z" unicode="Œ" />
<glyph horiz-adv-x="1645" d="M 846 891 C 883 963 930 1016 988 1051 C 1046 1086 1109 1104 1178 1104 C 1238 1104 1292 1092 1340 1068 C 1388 1044 1429 1008 1463 962 C 1496 915 1522 857 1540 787 C 1558 717 1567 637 1567 547 L 1567 506 L 926 506 C 930 378 955 281 1001 215 C 1047 149 1109 117 1188 117 C 1219 117 1247 121 1272 130 C 1296 138 1319 151 1339 167 C 1359 183 1377 202 1394 226 C 1410 249 1426 275 1442 305 L 1556 233 C 1537 194 1515 159 1490 127 C 1465 95 1437 68 1405 46 C 1373 24 1339 7 1301 -5 C 1263 -17 1222 -23 1178 -23 C 1105 -23 1040 -5 983 30 C 926 65 880 118 846 188 C 808 119 761 67 703 31 C 645 -5 580 -23 508 -23 C 448 -23 392 -11 340 13 C 288 37 242 72 204 120 C 165 167 135 226 113 296 C 91 366 80 448 80 541 C 80 633 91 715 113 785 C 135 855 165 914 203 962 C 241 1009 287 1044 339 1068 C 391 1092 447 1104 508 1104 C 580 1104 646 1086 704 1050 C 762 1014 810 961 846 891 Z M 1407 631 C 1404 679 1398 724 1388 765 C 1378 806 1363 841 1345 870 C 1326 899 1303 922 1275 938 C 1247 954 1215 963 1178 963 C 1148 963 1119 956 1091 943 C 1063 930 1037 910 1015 883 C 992 856 973 822 958 780 C 942 738 932 689 928 631 L 1407 631 Z M 508 117 C 550 117 588 127 621 147 C 653 167 680 195 702 232 C 724 269 740 314 751 366 C 762 418 768 477 768 541 C 768 599 762 653 752 704 C 742 755 726 800 705 838 C 684 876 657 906 624 928 C 591 950 552 961 508 961 C 464 961 426 951 394 931 C 361 911 334 882 312 845 C 290 808 273 764 262 712 C 251 660 246 603 246 541 C 246 481 251 426 261 375 C 271 323 286 278 307 240 C 328 202 355 172 388 150 C 421 128 461 117 508 117 Z" unicode="œ" />
<glyph horiz-adv-x="1167" d="" unicode="Ŕ" />
<glyph horiz-adv-x="707" d="" unicode="ŕ" />
<glyph horiz-adv-x="1167" d="" unicode="Ŗ" />
<glyph horiz-adv-x="707" d="" unicode="ŗ" />
<glyph horiz-adv-x="1167" d="" unicode="Ř" />
<glyph horiz-adv-x="707" d="" unicode="ř" />
<glyph horiz-adv-x="1120" d="" unicode="Ś" />
<glyph horiz-adv-x="891" d="" unicode="ś" />
<glyph horiz-adv-x="1120" d="" unicode="Ŝ" />
<glyph horiz-adv-x="891" d="" unicode="ŝ" />
<glyph horiz-adv-x="1120" d="" unicode="Ş" />
<glyph horiz-adv-x="891" d="" unicode="ş" />
<glyph horiz-adv-x="1120" d="M 276 1936 L 380 1936 L 561 1749 L 741 1936 L 841 1936 L 616 1610 L 501 1610 L 276 1936 Z M 571 -25 C 507 -25 450 -16 399 0 C 347 17 301 41 260 72 C 218 103 182 141 150 185 C 118 229 91 279 68 334 L 215 401 C 232 361 252 324 275 290 C 298 256 324 227 354 203 C 383 179 416 160 452 147 C 488 133 527 127 571 127 C 615 127 655 132 691 144 C 726 156 756 172 780 193 C 804 214 823 240 836 270 C 849 300 856 333 856 371 C 856 415 847 453 830 486 C 812 518 789 547 761 573 C 732 598 699 621 662 641 C 624 661 585 680 545 700 C 513 715 480 731 447 747 C 414 763 382 781 352 800 C 322 819 293 840 267 864 C 241 887 218 913 198 943 C 178 972 163 1005 152 1042 C 140 1078 135 1120 135 1167 C 135 1222 145 1273 166 1319 C 187 1365 216 1405 253 1439 C 290 1472 334 1498 384 1516 C 434 1534 488 1544 547 1544 C 607 1544 660 1535 708 1518 C 756 1501 798 1478 835 1449 C 872 1420 904 1386 931 1348 C 958 1309 981 1268 999 1225 L 852 1153 C 838 1185 821 1215 803 1244 C 785 1273 763 1299 739 1321 C 714 1343 686 1360 654 1373 C 622 1386 585 1393 545 1393 C 509 1393 476 1387 446 1377 C 416 1366 391 1351 370 1332 C 349 1312 333 1289 322 1262 C 310 1235 305 1206 305 1174 C 305 1130 313 1091 330 1059 C 347 1026 370 997 398 972 C 426 946 459 923 496 903 C 532 883 570 863 610 844 C 642 828 675 812 708 796 C 741 780 773 762 804 743 C 834 723 863 702 890 679 C 916 655 940 629 960 599 C 980 569 995 536 1007 499 C 1018 462 1024 421 1024 375 C 1024 319 1013 267 992 219 C 971 170 941 128 902 92 C 862 56 815 27 759 6 C 703 -14 641 -25 571 -25 Z" unicode="Š" />
<glyph horiz-adv-x="891" d="M 165 1522 L 269 1522 L 450 1335 L 630 1522 L 730 1522 L 505 1196 L 390 1196 L 165 1522 Z M 444 -23 C 350 -23 270 -3 204 37 C 137 77 83 131 41 199 L 154 281 C 190 226 233 184 284 156 C 334 127 388 113 446 113 C 515 113 568 127 606 155 C 643 183 662 222 662 272 C 662 305 654 333 638 356 C 622 378 600 398 574 415 C 547 431 517 446 483 459 C 449 472 415 485 380 499 C 344 512 310 527 276 544 C 242 560 212 580 186 604 C 159 628 138 656 122 690 C 106 724 98 765 98 813 C 98 855 106 895 123 931 C 140 967 164 997 194 1023 C 224 1048 260 1068 302 1082 C 344 1096 390 1104 440 1104 C 520 1104 590 1086 649 1051 C 708 1016 757 969 797 909 L 686 823 C 658 865 623 899 583 926 C 542 953 494 967 438 967 C 376 967 331 953 302 925 C 272 897 258 863 258 821 C 258 787 266 759 282 737 C 298 714 319 694 345 678 C 371 662 401 648 435 636 C 468 624 502 611 537 598 C 572 584 606 570 640 554 C 673 538 703 517 729 493 C 755 469 777 440 793 406 C 809 372 817 330 817 281 C 817 233 807 191 788 153 C 768 115 742 84 708 58 C 674 32 635 12 590 -2 C 544 -16 496 -23 444 -23 Z" unicode="š" />
<glyph horiz-adv-x="1063" d="" unicode="Ţ" />
<glyph horiz-adv-x="666" d="" unicode="ţ" />
<glyph horiz-adv-x="1063" d="" unicode="Ť" />
<glyph horiz-adv-x="666" d="" unicode="ť" />
<glyph horiz-adv-x="1063" d="" unicode="Ŧ" />
<glyph horiz-adv-x="666" d="" unicode="ŧ" />
<glyph horiz-adv-x="1233" d="" unicode="Ũ" />
<glyph horiz-adv-x="1028" d="" unicode="ũ" />
<glyph horiz-adv-x="1233" d="" unicode="Ū" />
<glyph horiz-adv-x="1028" d="" unicode="ū" />
<glyph horiz-adv-x="1233" d="" unicode="Ŭ" />
<glyph horiz-adv-x="1028" d="" unicode="ŭ" />
<glyph horiz-adv-x="1233" d="" unicode="Ů" />
<glyph horiz-adv-x="1028" d="" unicode="ů" />
<glyph horiz-adv-x="1233" d="" unicode="Ű" />
<glyph horiz-adv-x="1028" d="" unicode="ű" />
<glyph horiz-adv-x="1233" d="" unicode="Ų" />
<glyph horiz-adv-x="1028" d="" unicode="ų" />
<glyph horiz-adv-x="1591" d="" unicode="Ŵ" />
<glyph horiz-adv-x="1307" d="" unicode="ŵ" />
<glyph horiz-adv-x="1077" d="" unicode="Ŷ" />
<glyph horiz-adv-x="932" d="" unicode="ŷ" />
<glyph horiz-adv-x="1077" d="M 453 625 L 33 1516 L 209 1516 L 541 782 L 545 782 L 877 1516 L 1042 1516 L 625 629 L 625 0 L 453 0 L 453 625 Z M 621 1792 L 784 1792 L 784 1608 L 621 1608 L 621 1792 Z M 295 1792 L 461 1792 L 461 1608 L 295 1608 L 295 1792 Z" unicode="Ÿ" />
<glyph horiz-adv-x="1079" d="" unicode="Ź" />
<glyph horiz-adv-x="881" d="" unicode="ź" />
<glyph horiz-adv-x="1079" d="" unicode="Ż" />
<glyph horiz-adv-x="881" d="" unicode="ż" />
<glyph horiz-adv-x="1079" d="M 256 1936 L 360 1936 L 541 1749 L 721 1936 L 821 1936 L 596 1610 L 481 1610 L 256 1936 Z M 68 129 L 793 1358 L 117 1358 L 117 1516 L 993 1516 L 993 1386 L 272 156 L 993 156 L 993 0 L 68 0 L 68 129 Z" unicode="Ž" />
<glyph horiz-adv-x="881" d="M 159 1522 L 263 1522 L 444 1335 L 624 1522 L 724 1522 L 499 1196 L 384 1196 L 159 1522 Z M 66 106 L 592 944 L 111 944 L 111 1081 L 788 1081 L 788 973 L 262 135 L 811 135 L 811 0 L 66 0 L 66 106 Z" unicode="ž" />
<glyph horiz-adv-x="700" d="M 59 735 L 80 870 L 242 870 L 293 1245 C 299 1295 311 1337 329 1372 C 347 1407 369 1436 397 1458 C 424 1480 456 1496 494 1506 C 531 1516 572 1522 618 1522 C 633 1522 650 1520 668 1518 C 686 1516 699 1514 709 1513 L 686 1374 C 676 1375 666 1376 655 1378 C 643 1379 632 1380 621 1380 C 599 1380 578 1377 560 1373 C 541 1369 525 1361 511 1350 C 497 1339 485 1325 476 1307 C 466 1289 460 1266 457 1239 L 406 870 L 606 870 L 586 735 L 387 735 L 266 -150 C 252 -243 220 -310 169 -352 C 117 -393 45 -414 -47 -414 C -63 -414 -81 -413 -101 -412 C -120 -410 -135 -409 -147 -408 L -123 -270 C -114 -272 -104 -273 -93 -274 C -82 -275 -71 -276 -61 -276 C -39 -276 -19 -273 -1 -268 C 17 -262 34 -254 48 -242 C 62 -230 75 -215 85 -197 C 95 -178 102 -155 106 -129 L 223 735 L 59 735 Z" unicode="ƒ" />
<glyph horiz-adv-x="899" d="" unicode="⁄" />
<glyph horiz-adv-x="1280" d="" unicode="∂" />
<glyph horiz-adv-x="1536" d="" unicode="∆" />
<glyph horiz-adv-x="1536" d="" unicode="∏" />
<glyph horiz-adv-x="1152" d="" unicode="∑" />
<glyph horiz-adv-x="1096" d="" unicode="−" />
<glyph horiz-adv-x="899" d="" unicode="∕" />
<glyph horiz-adv-x="1120" d="" unicode="Ș" />
<glyph horiz-adv-x="891" d="" unicode="ș" />
<glyph horiz-adv-x="1063" d="" unicode="Ț" />
<glyph horiz-adv-x="666" d="" unicode="ț" />
<glyph horiz-adv-x="1364" d="" unicode="∞" />
<glyph horiz-adv-x="1152" d="" unicode="∫" />
<glyph horiz-adv-x="1155" d="" unicode="≈" />
<glyph horiz-adv-x="1667" d="M 201 944 L 43 944 L 43 1081 L 201 1081 L 201 1245 C 201 1333 225 1401 273 1448 C 321 1494 395 1518 496 1518 C 500 1518 507 1517 515 1517 C 523 1517 532 1516 540 1516 C 548 1516 556 1515 563 1515 C 569 1514 573 1513 575 1513 L 575 1376 C 573 1376 570 1376 564 1376 C 558 1376 552 1377 545 1377 C 538 1377 531 1377 525 1377 C 519 1377 515 1378 514 1378 C 492 1378 472 1375 454 1371 C 436 1367 420 1359 407 1349 C 393 1338 383 1324 376 1306 C 368 1288 365 1267 365 1241 L 365 1081 L 567 1081 L 567 944 L 365 944 L 365 0 L 201 0 L 201 944 Z M 809 944 L 651 944 L 651 1081 L 809 1081 L 809 1245 C 809 1333 833 1401 881 1448 C 929 1494 1003 1518 1104 1518 C 1108 1518 1115 1517 1123 1517 C 1131 1517 1140 1516 1149 1516 C 1157 1516 1165 1515 1172 1515 C 1178 1514 1182 1513 1184 1513 L 1184 1376 C 1182 1376 1179 1376 1173 1376 C 1167 1376 1160 1377 1153 1377 C 1146 1377 1139 1377 1133 1377 C 1127 1377 1123 1378 1122 1378 C 1100 1378 1080 1375 1062 1371 C 1044 1367 1028 1359 1015 1349 C 1001 1338 991 1324 984 1306 C 976 1288 973 1267 973 1241 L 973 1081 L 1176 1081 L 1176 944 L 973 944 L 973 0 L 809 0 L 809 944 Z M 1358 1516 L 1524 1516 L 1524 0 L 1358 0 L 1358 1516 Z" unicode="ﬄ" />
<glyph horiz-adv-x="965" d="" unicode="ə" />
<glyph horiz-adv-x="1155" d="" unicode="≠" />
<glyph horiz-adv-x="1171" d="" unicode="≤" />
<glyph horiz-adv-x="1169" d="" unicode="≥" />
<glyph horiz-adv-x="838" d="" unicode="⁰" />
<glyph horiz-adv-x="735" d="" unicode="⁴" />
<glyph horiz-adv-x="745" d="" unicode="⁵" />
<glyph horiz-adv-x="772" d="" unicode="⁶" />
<glyph horiz-adv-x="909" d="M 397 1516 L 512 1516 L 737 1190 L 635 1190 L 455 1372 L 272 1190 L 172 1190 L 397 1516 Z" unicode="ˆ" />
<glyph horiz-adv-x="909" d="M 172 1522 L 276 1522 L 457 1335 L 637 1522 L 737 1522 L 512 1196 L 397 1196 L 172 1522 Z" unicode="ˇ" />
<glyph horiz-adv-x="664" d="" unicode="⁷" />
<glyph horiz-adv-x="770" d="" unicode="⁸" />
<glyph horiz-adv-x="772" d="" unicode="⁹" />
<glyph horiz-adv-x="909" d="" unicode="˘" />
<glyph horiz-adv-x="909" d="" unicode="˙" />
<glyph horiz-adv-x="909" d="M 455 1176 C 428 1176 404 1181 382 1191 C 360 1201 342 1214 327 1232 C 312 1249 301 1270 293 1294 C 285 1318 281 1344 281 1372 C 281 1400 285 1426 293 1450 C 301 1474 312 1494 327 1512 C 342 1529 360 1542 382 1552 C 404 1562 428 1567 455 1567 C 481 1567 504 1562 526 1552 C 547 1542 565 1529 581 1512 C 596 1494 608 1474 616 1450 C 624 1426 629 1400 629 1372 C 629 1344 624 1318 616 1294 C 608 1270 596 1249 581 1232 C 565 1214 547 1201 526 1191 C 504 1181 481 1176 455 1176 Z M 455 1255 C 469 1255 481 1258 492 1264 C 502 1270 511 1279 519 1290 C 526 1300 531 1313 535 1327 C 539 1341 541 1356 541 1372 C 541 1387 539 1401 535 1415 C 531 1429 526 1441 519 1451 C 511 1461 502 1470 492 1476 C 481 1482 469 1485 455 1485 C 427 1485 405 1474 391 1452 C 376 1430 369 1403 369 1372 C 369 1356 370 1341 374 1327 C 378 1313 383 1300 391 1290 C 398 1279 407 1270 418 1264 C 428 1258 441 1255 455 1255 Z" unicode="˚" />
<glyph horiz-adv-x="909" d="" unicode="˛" />
<glyph horiz-adv-x="909" d="M 590 1186 C 562 1186 535 1192 511 1204 C 487 1216 464 1229 443 1243 C 421 1257 401 1270 382 1282 C 362 1294 344 1300 326 1300 C 300 1300 282 1291 271 1275 C 259 1258 254 1230 254 1190 L 154 1190 C 154 1273 168 1334 197 1373 C 225 1412 267 1432 322 1432 C 349 1432 375 1426 399 1414 C 423 1402 446 1388 468 1374 C 490 1360 510 1347 530 1335 C 550 1323 569 1317 588 1317 C 611 1317 628 1324 640 1340 C 651 1356 657 1385 657 1427 L 756 1427 C 756 1343 741 1281 713 1243 C 684 1205 643 1186 590 1186 Z" unicode="˜" />
<glyph horiz-adv-x="909" d="" unicode="˝" />
<glyph horiz-adv-x="1217" d="M 201 944 L 43 944 L 43 1081 L 201 1081 L 201 1245 C 201 1333 225 1401 273 1448 C 321 1494 395 1518 496 1518 C 500 1518 507 1517 515 1517 C 523 1517 532 1516 540 1516 C 548 1516 556 1515 563 1515 C 569 1514 573 1513 575 1513 L 575 1376 C 573 1376 570 1376 564 1376 C 558 1376 552 1377 545 1377 C 538 1377 531 1377 525 1377 C 519 1377 515 1378 514 1378 C 492 1378 472 1375 454 1371 C 436 1367 420 1359 407 1349 C 393 1338 383 1324 376 1306 C 368 1288 365 1267 365 1241 L 365 1081 L 567 1081 L 567 944 L 365 944 L 365 0 L 201 0 L 201 944 Z M 809 944 L 651 944 L 651 1081 L 809 1081 L 809 1245 C 809 1333 833 1401 881 1448 C 929 1494 1003 1518 1104 1518 C 1108 1518 1115 1517 1123 1517 C 1131 1517 1140 1516 1149 1516 C 1157 1516 1165 1515 1172 1515 C 1178 1514 1182 1513 1184 1513 L 1184 1376 C 1182 1376 1179 1376 1173 1376 C 1167 1376 1160 1377 1153 1377 C 1146 1377 1139 1377 1133 1377 C 1127 1377 1123 1378 1122 1378 C 1100 1378 1080 1375 1062 1371 C 1044 1367 1028 1359 1015 1349 C 1001 1338 991 1324 984 1306 C 976 1288 973 1267 973 1241 L 973 1081 L 1176 1081 L 1176 944 L 973 944 L 973 0 L 809 0 L 809 944 Z" unicode="ﬀ" />
<glyph horiz-adv-x="1032" d="M 725 1475 L 891 1475 L 891 1296 L 725 1296 L 725 1475 Z M 201 944 L 43 944 L 43 1081 L 201 1081 L 201 1245 C 201 1334 225 1402 274 1448 C 322 1494 394 1518 489 1518 C 493 1518 500 1517 508 1517 C 516 1517 525 1516 533 1516 C 541 1516 548 1515 554 1515 C 560 1514 563 1513 565 1513 L 565 1376 C 563 1376 560 1376 555 1376 C 550 1376 544 1377 538 1377 C 531 1377 525 1377 519 1377 C 513 1377 510 1378 508 1378 C 464 1378 430 1367 404 1346 C 378 1325 365 1290 365 1241 L 365 1081 L 557 1081 L 557 944 L 365 944 L 365 0 L 201 0 L 201 944 Z M 727 1081 L 889 1081 L 889 0 L 727 0 L 727 1081 Z" unicode="ﬁ" />
<glyph horiz-adv-x="1032" d="M 727 1516 L 889 1516 L 889 0 L 727 0 L 727 1516 Z M 201 944 L 43 944 L 43 1081 L 201 1081 L 201 1245 C 201 1334 225 1402 274 1448 C 322 1494 394 1518 489 1518 C 493 1518 500 1517 508 1517 C 516 1517 525 1516 533 1516 C 541 1516 548 1515 554 1515 C 560 1514 563 1513 565 1513 L 565 1376 C 563 1376 560 1376 555 1376 C 550 1376 544 1377 538 1377 C 531 1377 525 1377 519 1377 C 513 1377 510 1378 508 1378 C 464 1378 430 1367 404 1346 C 378 1325 365 1290 365 1241 L 365 1081 L 557 1081 L 557 944 L 365 944 L 365 0 L 201 0 L 201 944 Z" unicode="ﬂ" />
<glyph horiz-adv-x="1667" d="M 201 944 L 43 944 L 43 1081 L 201 1081 L 201 1245 C 201 1333 225 1401 273 1448 C 321 1494 395 1518 496 1518 C 500 1518 507 1517 515 1517 C 523 1517 532 1516 540 1516 C 548 1516 556 1515 563 1515 C 569 1514 573 1513 575 1513 L 575 1376 C 573 1376 570 1376 564 1376 C 558 1376 552 1377 545 1377 C 538 1377 531 1377 525 1377 C 519 1377 515 1378 514 1378 C 492 1378 472 1375 454 1371 C 436 1367 420 1359 407 1349 C 393 1338 383 1324 376 1306 C 368 1288 365 1267 365 1241 L 365 1081 L 567 1081 L 567 944 L 365 944 L 365 0 L 201 0 L 201 944 Z M 809 944 L 651 944 L 651 1081 L 809 1081 L 809 1245 C 809 1333 833 1401 881 1448 C 929 1494 1003 1518 1104 1518 C 1108 1518 1115 1517 1123 1517 C 1131 1517 1140 1516 1149 1516 C 1157 1516 1165 1515 1172 1515 C 1178 1514 1182 1513 1184 1513 L 1184 1376 C 1182 1376 1179 1376 1173 1376 C 1167 1376 1160 1377 1153 1377 C 1146 1377 1139 1377 1133 1377 C 1127 1377 1123 1378 1122 1378 C 1100 1378 1080 1375 1062 1371 C 1044 1367 1028 1359 1015 1349 C 1001 1338 991 1324 984 1306 C 976 1288 973 1267 973 1241 L 973 1081 L 1176 1081 L 1176 944 L 973 944 L 973 0 L 809 0 L 809 944 Z M 1358 1475 L 1526 1475 L 1526 1296 L 1358 1296 L 1358 1475 Z M 1358 1081 L 1524 1081 L 1524 0 L 1358 0 L 1358 1081 Z" unicode="ﬃ" />
<glyph horiz-adv-x="909" d="M 217 1329 L 692 1329 L 692 1194 L 217 1194 L 217 1329 Z" unicode="̄" />
<glyph horiz-adv-x="485" d="" unicode="̦" />
<glyph horiz-adv-x="1536" d="" unicode="Δ" />
<glyph horiz-adv-x="1664" d="" unicode="Ω" />
<glyph horiz-adv-x="1032" d="M 125 1081 L 293 1081 L 293 311 C 293 247 304 199 328 167 C 351 135 391 119 449 119 C 499 119 548 133 594 161 C 640 189 687 226 733 272 L 733 1081 L 901 1081 L 901 0 L 733 0 L 733 154 C 713 134 692 114 670 95 C 647 75 623 58 597 42 C 571 26 543 13 515 3 C 486 -6 456 -12 424 -14 C 396 -15 370 -12 348 -6 C 326 0 307 12 293 29 L 293 -410 L 125 -410 L 125 1081 Z" unicode="μ" />
<glyph horiz-adv-x="1408" d="" unicode="π" />
<glyph horiz-adv-x="1237" d="M 31 846 L 31 977 L 244 977 C 255 1076 274 1161 302 1233 C 330 1304 364 1363 405 1409 C 446 1455 493 1489 546 1511 C 598 1533 655 1544 717 1544 C 780 1544 836 1533 885 1511 C 934 1489 976 1458 1012 1420 C 1047 1381 1076 1335 1099 1282 C 1121 1229 1138 1172 1149 1110 L 989 1081 C 980 1127 969 1169 955 1207 C 941 1245 924 1277 903 1305 C 881 1333 856 1354 826 1370 C 796 1385 760 1393 719 1393 C 635 1393 566 1359 513 1292 C 460 1224 426 1119 410 977 L 770 977 L 770 846 L 399 846 C 397 832 397 819 397 806 C 397 792 397 779 397 766 C 397 748 397 731 397 715 C 397 699 397 683 399 668 L 770 668 L 770 537 L 410 537 C 426 397 459 293 511 224 C 562 155 634 121 727 121 C 767 121 803 128 835 143 C 867 158 894 180 917 208 C 940 236 959 270 975 311 C 991 351 1004 397 1014 449 L 1169 424 C 1157 360 1140 301 1116 246 C 1092 190 1061 142 1025 102 C 988 61 945 29 895 6 C 845 -17 789 -29 727 -29 C 662 -29 603 -18 549 4 C 495 26 447 60 406 106 C 364 152 330 210 303 282 C 275 353 256 438 244 537 L 31 537 L 31 668 L 233 668 C 231 683 231 699 231 715 C 231 731 231 747 231 764 C 231 778 231 792 231 806 C 231 819 231 832 233 846 L 31 846 Z" unicode="€" />
<glyph horiz-adv-x="545" d="M 168 741 L 377 741 L 377 526 L 168 526 L 168 741 Z" unicode="∙" />
<glyph horiz-adv-x="1026" d="" unicode="√" />
<glyph horiz-adv-x="991" d="M 434 852 L 80 831 L 80 989 L 434 965 L 406 1516 L 584 1516 L 557 965 L 911 989 L 911 831 L 557 852 L 584 -410 L 406 -410 L 434 852 Z" unicode="†" />
<glyph horiz-adv-x="989" d="M 434 70 L 94 47 L 94 203 L 434 180 L 414 557 L 434 928 L 94 905 L 94 1061 L 434 1038 L 406 1516 L 584 1516 L 555 1038 L 895 1061 L 895 905 L 555 928 L 578 557 L 555 180 L 895 203 L 895 47 L 555 70 L 584 -410 L 406 -410 L 434 70 Z" unicode="‡" />
<glyph horiz-adv-x="948" d="M 473 475 C 438 475 406 481 376 493 C 346 505 321 522 300 544 C 278 565 261 590 249 620 C 237 650 231 682 231 717 C 231 752 237 784 249 814 C 261 844 278 869 300 891 C 321 913 346 930 376 942 C 406 954 438 961 473 961 C 508 961 540 954 570 942 C 600 930 625 913 647 891 C 669 869 686 844 698 814 C 710 784 717 752 717 717 C 717 682 710 650 698 620 C 686 590 669 565 647 544 C 625 522 600 505 570 493 C 540 481 508 475 473 475 Z" unicode="•" />
<glyph horiz-adv-x="1456" d="M 1116 213 L 1307 213 L 1307 0 L 1116 0 L 1116 213 Z M 631 213 L 821 213 L 821 0 L 631 0 L 631 213 Z M 145 213 L 336 213 L 336 0 L 145 0 L 145 213 Z" unicode="…" />
<glyph horiz-adv-x="1155" d="" unicode="◊" />
<glyph horiz-adv-x="1587" d="" unicode="" />
<glyph horiz-adv-x="1591" d="" unicode="Ẁ" />
<glyph horiz-adv-x="1307" d="" unicode="ẁ" />
<glyph horiz-adv-x="1591" d="" unicode="Ẃ" />
<glyph horiz-adv-x="1307" d="" unicode="ẃ" />
<glyph horiz-adv-x="1591" d="" unicode="Ẅ" />
<glyph horiz-adv-x="1307" d="" unicode="ẅ" />
<glyph horiz-adv-x="1458" d="" unicode="℗" />
<glyph horiz-adv-x="2396" d="M 391 612 C 295 612 222 651 170 730 C 118 808 92 924 92 1077 C 92 1228 118 1343 170 1422 C 222 1500 295 1540 391 1540 C 487 1540 560 1500 610 1422 C 660 1343 686 1228 686 1077 C 686 924 660 808 610 730 C 560 651 487 612 391 612 Z M 1167 1516 L 1311 1516 L 541 0 L 397 0 L 1167 1516 Z M 2009 -20 C 1913 -20 1840 19 1788 97 C 1736 175 1710 291 1710 444 C 1710 595 1736 710 1788 789 C 1840 867 1913 907 2009 907 C 2104 907 2177 867 2227 789 C 2277 710 2302 595 2302 444 C 2302 291 2277 175 2227 97 C 2177 19 2104 -20 2009 -20 Z M 1323 -20 C 1227 -20 1154 19 1102 97 C 1050 175 1024 291 1024 444 C 1024 595 1050 710 1102 789 C 1154 867 1227 907 1323 907 C 1417 907 1490 867 1540 789 C 1590 710 1616 595 1616 444 C 1616 291 1590 175 1540 97 C 1490 19 1417 -20 1323 -20 Z M 391 741 C 445 741 484 768 508 822 C 532 876 545 961 545 1077 C 545 1191 532 1276 506 1330 C 480 1384 441 1411 391 1411 C 337 1411 298 1384 273 1331 C 248 1277 236 1193 236 1077 C 236 960 249 875 275 821 C 301 767 339 741 391 741 Z M 2009 106 C 2063 106 2102 133 2126 188 C 2150 242 2163 328 2163 444 C 2163 558 2149 642 2123 696 C 2097 749 2059 776 2009 776 C 1955 776 1915 749 1889 696 C 1863 642 1851 558 1851 444 C 1851 327 1864 241 1891 187 C 1917 133 1957 106 2009 106 Z M 1323 106 C 1377 106 1416 133 1440 188 C 1464 242 1477 328 1477 444 C 1477 558 1463 642 1437 696 C 1411 749 1373 776 1323 776 C 1268 776 1228 749 1203 696 C 1177 642 1165 558 1165 444 C 1165 327 1178 241 1205 187 C 1231 133 1271 106 1323 106 Z" unicode="‰" />
<glyph horiz-adv-x="1532" d="M 717 1516 L 868 1516 L 1069 817 L 1270 1516 L 1425 1516 L 1425 637 L 1307 637 L 1307 1284 L 1118 637 L 1016 637 L 825 1286 L 825 637 L 717 637 L 717 1516 Z M 266 1403 L 51 1403 L 51 1516 L 608 1516 L 608 1403 L 389 1403 L 389 637 L 266 637 L 266 1403 Z" unicode="™" />
<glyph horiz-adv-x="430" d="" unicode="′" />
<glyph horiz-adv-x="1664" d="" unicode="Ω" />
<glyph horiz-adv-x="1077" d="" unicode="Ỳ" />
<glyph horiz-adv-x="932" d="" unicode="ỳ" />
<glyph horiz-adv-x="752" d="" unicode="″" />
<glyph horiz-adv-x="1026" d="" unicode="✓" />
<glyph horiz-adv-x="565" d="M 61 541 L 315 1079 L 477 1079 L 229 541 L 477 0 L 315 0 L 61 541 Z" unicode="‹" />
<glyph horiz-adv-x="565" d="M 336 541 L 86 1079 L 250 1079 L 504 541 L 250 0 L 86 0 L 336 541 Z" unicode="›" />
</font>
</defs>
</svg>
